<?xml version="1.0" standalone="no"?>
<!DOCTYPE svg PUBLIC "-//W3C//DTD SVG 1.1//EN" "http://www.w3.org/Graphics/SVG/1.1/DTD/svg11.dtd" >
<svg xmlns="http://www.w3.org/2000/svg" xmlns:xlink="http://www.w3.org/1999/xlink" version="1.1">
<metadata></metadata>
<defs>
<font id="knedgebold" horiz-adv-x="1728" >
<font-face units-per-em="2048" ascent="1536" descent="-512" />
<missing-glyph horiz-adv-x="774" />
<glyph unicode="&#xfb01;" horiz-adv-x="1212" d="M29 954v56q0 4 6 4h115q4 0 4 4q11 205 89 336t206 131h450q65 0 111.5 -46.5t46.5 -111.5t-46.5 -111.5t-111.5 -46.5t-123 58l-135 135q-31 31 -68 31q-65 0 -109 -61.5t-44 -166.5v-147q0 -4 4 -4h602q6 0 6 -4v-836q0 -9 6 -18l92 -148q8 -8 -2 -8h-458q-10 0 -2 8 l92 148q6 9 6 18v690q0 6 -4 8l-121 76q-4 2 -8 2h-187q-26 0 -26 -22v-758q0 -8 6 -14l125 -148q8 -8 -2 -8h-494q-10 0 -2 8l97 148q4 6 4 14v758q0 10 -8 16t-19 6h-92q-6 0 -6 4z" />
<glyph unicode="&#xfb02;" horiz-adv-x="1214" d="M29 954v56q0 4 6 4h115q4 0 4 4q7 129 57.5 237t129 169t165.5 61h522q4 0 4 -4v-1307q0 -6 6 -18l92 -148q8 -8 -2 -8h-458q-10 0 -2 8l92 148q6 12 6 18v1032q0 93 -84 148q-50 33 -77 45t-62 12q-18 0 -33.5 -4.5t-27 -15.5t-20.5 -22t-15.5 -31t-11 -35.5t-7.5 -41.5 t-4.5 -43t-2.5 -47.5t-1 -47v-48.5v-57q0 -4 4 -4h180q6 0 6 -4v-56q0 -4 -6 -4h-158q-26 0 -26 -22v-758q0 -8 6 -14l125 -148q8 -8 -2 -8h-494q-10 0 -2 8l97 148q4 6 4 14v758q0 10 -8 16t-19 6h-92q-6 0 -6 4z" />
<glyph unicode="gj" horiz-adv-x="1671" d="M86 -168q6 146 168 209q6 3 0 6q-60 27 -95.5 79t-35.5 107q0 64 34.5 118.5t92.5 72.5q3 1 3.5 4t-1.5 4q-56 30 -104 107t-48 155q0 106 65 189t167 125.5t219 42.5q148 0 254 -62q5 -3 10 0q39 25 88 25h176q8 0 2 -6l-125 -136q-5 -5 -2 -10q35 -71 35 -135 q0 -91 -37.5 -166.5t-99.5 -123t-140 -73.5t-161 -26q-93 0 -191 35q-4 2 -10 2q-18 -3 -31 -21.5t-14 -44.5q-3 -52 52.5 -77t146.5 -25h254q178 0 255 -61.5t77 -176.5q0 -49 -15.5 -121t-15.5 -116q0 -64 35 -95.5t75 -31.5q50 0 79.5 38t29.5 121v1088q0 6 -4 8l-109 68 q-10 5 0 8l373 115q6 2 6 -4v-1108q0 -91 -25 -164t-63 -117.5t-86.5 -75t-91.5 -42t-82 -11.5q-52 0 -94.5 14t-69 37t-42 43.5t-23.5 40.5q-6 6 -13 2q-169 -149 -389 -149q-233 0 -359 83t-120 232zM338 -174q0 -107 64.5 -171.5t170.5 -64.5q151 0 243.5 79.5 t92.5 183.5q0 34 -15.5 58.5t-42.5 37t-58 18.5t-68 6h-217q-63 0 -98 13l-9 -2q-26 -20 -44.5 -66.5t-18.5 -91.5zM365 694q0 -130 50.5 -207t135.5 -77q89 0 136.5 77.5t47.5 208.5q0 134 -47.5 207.5t-136.5 73.5q-85 0 -135.5 -73.5t-50.5 -209.5zM1253 1327 q0 65 46.5 111.5t111.5 46.5t111.5 -46.5t46.5 -111.5t-46.5 -111.5t-111.5 -46.5t-111.5 46.5t-46.5 111.5z" />
<glyph unicode="qj" horiz-adv-x="1796" d="M82 516q0 -140 40 -249t108 -173.5t152.5 -97.5t180.5 -33q193 0 291 168q6 9 6 -2v-426q0 -10 -6 -18l-106 -148q-8 -8 2 -8h79q58 0 123 5t103 5q35 0 98.5 -5t99.5 -5q59 0 116 15t111.5 49.5t96 85t67 127t25.5 169.5v1072q0 6 -6 4l-373 -115q-10 -3 0 -8l109 -68 q4 -2 4 -8v-1063q0 -55 -13.5 -93.5t-36.5 -57t-45.5 -26t-47.5 -7.5q-134 0 -134 166v1292q0 4 -1.5 6t-4.5 -2l-262 -193q-4 -4 -6 0q-38 79 -114 128t-173 49q-219 0 -351 -144t-132 -391zM360 514q-3 190 69.5 326.5t166.5 136.5q47 0 93 -29.5t85 -85t62.5 -146.5 t23.5 -202q0 -231 -74 -354t-188 -123q-112 0 -173.5 126.5t-64.5 350.5zM1378 1327q0 65 47 111.5t111 46.5t111 -46.5t47 -111.5t-47 -111.5t-111 -46.5t-111 46.5t-47 111.5z" />
<glyph horiz-adv-x="0" />
<glyph horiz-adv-x="682" />
<glyph unicode=" "  horiz-adv-x="774" />
<glyph unicode="&#x09;" horiz-adv-x="774" />
<glyph unicode="&#xa0;" horiz-adv-x="774" />
<glyph unicode="!" horiz-adv-x="589" d="M137 121q0 65 46.5 111.5t111.5 46.5t111.5 -46.5t46.5 -111.5t-46.5 -111.5t-111.5 -46.5t-111.5 46.5t-46.5 111.5zM141 1260q-5 69 36.5 119.5t117.5 50.5q73 0 114.5 -51t36.5 -119l-102 -889q0 -9 -8 -9h-84q-8 0 -8 9z" />
<glyph unicode="&#x22;" horiz-adv-x="806" d="M96 1294q-15 85 23.5 138t103.5 53q68 0 104 -52t21 -139l-82 -458q0 -9 -6 -9h-74q-6 0 -6 9zM457 1294q-15 85 23.5 138t103.5 53q68 0 104 -52t21 -139l-82 -458q0 -9 -6 -9h-74q-6 0 -6 9z" />
<glyph unicode="#" horiz-adv-x="1587" d="M92 446l19 66q0 4 6 4h338l125 422h-344q-7 0 -7 4l19 68q0 4 6 4h346l121 409q0 7 8 7h76q6 0 4 -7l-121 -409h395l121 409q0 7 8 7h76q6 0 4 -7l-121 -409h318q6 0 6 -4l-18 -68q0 -4 -7 -4h-319l-123 -422h324q6 0 6 -4l-19 -66q0 -4 -6 -4h-327l-127 -436q0 -6 -9 -6 h-75q-6 0 -4 6l127 436h-396l-127 -436q0 -6 -8 -6h-76q-6 0 -4 6l127 436h-336q-6 0 -6 4zM545 516h393l125 422h-395z" />
<glyph unicode="$" horiz-adv-x="1206" d="M100 6v559q0 3 2 4.5t4 0.5t3 -5q73 -192 189.5 -337t258.5 -181q4 0 4 4v524l-225 109q-117 56 -176.5 151t-59.5 207q0 94 37.5 169t101.5 122t145.5 72t172.5 25q4 0 4 2v167q0 7 6 7h64q6 0 6 -7v-174q0 -2 4 -2q139 -16 264 -112q5 -5 10 0l95 82q3 5 8.5 4t5.5 -8 v-463q0 -13 -8 0q-46 77 -73 120t-67 98.5t-72.5 87t-74.5 59.5t-88 42q-4 0 -4 -2v-434l250 -119q147 -70 202.5 -161t55.5 -211q0 -176 -140 -305.5t-362 -135.5q-6 0 -6 -4v-182q0 -6 -6 -6h-64q-6 0 -6 6v182q0 4 -4 4q-192 18 -338 129q-6 4 -10 0l-103 -90q-6 -6 -6 2 zM299 1182q-2 -62 34.5 -109.5t123.5 -89.5l104 -51v414q0 4 -4 4h-20q-99 0 -168 -45t-70 -123zM637 41q0 -4 4 -4q121 1 194.5 60.5t79.5 146.5q6 90 -35.5 143.5t-154.5 110.5l-88 41v-498z" />
<glyph unicode="%" horiz-adv-x="1783" d="M96 1053q0 153 114.5 265t268.5 112q101 0 191 -51t144 -138.5t54 -187.5q0 -169 -112 -272t-277 -103q-163 0 -273 104.5t-110 270.5zM328 1053q0 -130 39.5 -212.5t111.5 -82.5q74 0 116 83t42 212q0 126 -42 211.5t-116 85.5q-72 0 -111.5 -85t-39.5 -212zM367 6 q-4 -6 4 -6h94q8 0 8 6q147 225 506.5 743.5t439.5 636.5q5 7 -4 7h-88q-8 0 -8 -7q-97 -143 -474.5 -687t-477.5 -693zM915 338q0 153 114.5 265t268.5 112q101 0 191 -51t144.5 -138.5t54.5 -187.5q0 -169 -112.5 -272t-277.5 -103q-163 0 -273 104.5t-110 270.5z M1147 338q0 -130 39.5 -212.5t111.5 -82.5q74 0 116 83t42 212q0 126 -42 211.5t-116 85.5q-72 0 -111.5 -85t-39.5 -212z" />
<glyph unicode="&#x26;" horiz-adv-x="1499" d="M68 373q0 74 24.5 136.5t72 112.5t103.5 88.5t131 75.5q6 3 2 7q-59 73 -87.5 115.5t-49 99.5t-20.5 120q0 68 34 126.5t88.5 96t120.5 58.5t131 21q180 0 274.5 -72.5t94.5 -177.5q0 -186 -311 -340q-5 -3 -2 -6l373 -482l4 2l149 224q2 4 0 8l-119 196q-4 4 2 4h422 q8 0 0 -4q-79 -52 -154.5 -128.5t-133.5 -168.5l-119 -188q-5 -5 0 -10l106 -135q61 -78 115 -78q27 0 47 18t37 58q3 7 6 4l35 -21q2 -2 0 -6q-1 -3 -10 -22t-12.5 -25t-13.5 -23t-18 -24.5t-21.5 -21.5t-28 -20t-33.5 -14t-42.5 -11t-50.5 -3h-11q-34 0 -54.5 2 t-55.5 11.5t-68.5 35.5t-66.5 68l-8 10q-4 4 -8 0q-117 -127 -346 -127q-85 0 -161 14.5t-144 46.5t-117 79.5t-77.5 116.5t-28.5 153zM332 381q0 -41 11 -86.5t35 -92t58 -83t83.5 -59.5t107.5 -23q83 0 151 22t123 88q3 3 0 7l-432 553q-3 3 -6 0q-62 -62 -96.5 -137.5 t-34.5 -188.5zM508 1176q0 -73 19 -125t67 -111l16 -20q3 -3 6 0q62 56 83.5 122t21.5 146q0 75 -28 118.5t-75 43.5q-55 0 -82.5 -47.5t-27.5 -126.5z" />
<glyph unicode="'" horiz-adv-x="421" d="M100 1294q-22 82 19 136.5t108 54.5q70 0 108.5 -53.5t16.5 -137.5l-82 -458q0 -9 -6 -9h-74q-6 0 -6 9z" />
<glyph unicode="(" horiz-adv-x="786" d="M102 600q0 127 37 245t99.5 213t149.5 177.5t183 143.5t203 106q5 3 8 0l23 -23q3 -3 0 -6q-136 -121 -192 -185q-152 -174 -198 -406q-24 -120 -24 -265q0 -79 8 -151t19.5 -130t34 -114.5t42 -98.5t52.5 -88t57 -76t65 -71t66 -64t70 -63q3 -3 0 -6l-23 -23q-3 -3 -8 0 q-107 45 -203 106t-183 143.5t-149.5 177.5t-99.5 213t-37 245z" />
<glyph unicode=")" horiz-adv-x="786" d="M-18 -256q58 51 90 81.5t82.5 84.5t79 97.5t63.5 110.5t53.5 134.5t31.5 157t13 190.5q0 141 -24.5 260t-56 195t-95 157.5t-105 122t-123.5 113.5q-6 5 -9 8t0 6l22 23q3 3 8 0q107 -45 203 -106t183 -143.5t149.5 -177.5t99.5 -213t37 -245t-37 -245t-99.5 -213 t-149.5 -177.5t-183 -143.5t-203 -106q-5 -3 -8 0l-22 23q-3 3 0 6z" />
<glyph unicode="*" horiz-adv-x="876" d="M71.5 896q13.5 39 55.5 52l227 70q9 3 9 9t-9 9l-225 70q-42 13 -55.5 53t10.5 78q24 39 63.5 46.5t73.5 -23.5l172 -164q5 -4 8 -2.5t2 8.5l-57 215q-12 43 17.5 78t74.5 35q46 0 73.5 -34.5t16.5 -78.5l-53 -215q-2 -9 2 -8q2 0 4 2l174 164q34 31 74 23.5t64 -46.5 q24 -38 10.5 -78t-55.5 -53l-228 -70q-6 -2 -6 -9t6 -9l230 -70q42 -13 55.5 -52t-8.5 -77q-25 -43 -65.5 -51t-74.5 25l-170 165q-6 6 -10 4t-2 -10l53 -227q10 -46 -17 -74t-79 -28q-43 0 -70 28.5t-16 73.5l57 227q2 8 -3 10t-11 -4l-170 -165q-34 -33 -74 -25t-65 51 q-22 38 -8.5 77z" />
<glyph unicode="+" horiz-adv-x="956" d="M51 477v72q0 4 6 4h373q4 0 4 4v401q0 7 6 7h76q6 0 6 -7v-401q0 -4 4 -4h373q6 0 6 -4v-72q0 -4 -6 -4h-373q-4 0 -4 -4v-401q0 -7 -6 -7h-76q-6 0 -6 7v401q0 4 -4 4h-373q-6 0 -6 4z" />
<glyph unicode="," horiz-adv-x="540" d="M72 119q0 70 46 115t113 45q75 0 115.5 -55t40.5 -130q0 -92 -41.5 -182.5t-106.5 -146.5t-130 -56q-5 0 -6 2.5t3 3.5q68 41 112 110t44 142q0 6 -4 4q-16 -8 -39 -8q-64 0 -105.5 45.5t-41.5 110.5z" />
<glyph unicode="-" horiz-adv-x="579" d="M51 477v72q0 4 6 4h445q6 0 6 -4v-72q0 -4 -6 -4h-445q-6 0 -6 4z" />
<glyph unicode="." horiz-adv-x="540" d="M72 121q0 65 46.5 111.5t110.5 46.5q65 0 111.5 -46.5t46.5 -111.5t-46.5 -111.5t-111.5 -46.5q-64 0 -110.5 46.5t-46.5 111.5z" />
<glyph unicode="/" horiz-adv-x="671" d="M49 -279l498 1702q0 7 8 7h63q7 0 5 -7l-498 -1702q0 -6 -8 -6h-64q-6 0 -4 6z" />
<glyph unicode="0" horiz-adv-x="1400" d="M78 692q0 114 25 221.5t77 201.5t124.5 164t174.5 110.5t221 40.5t221 -40t175 -109.5t125 -163t77 -201.5t25 -224q0 -151 -41.5 -283t-119 -231.5t-196.5 -157t-266 -57.5t-266 57.5t-196 157t-118.5 231.5t-41.5 283zM385 692q4 -142 24.5 -259t58 -206.5t96 -139.5 t134.5 -50q94 0 165.5 87.5t109.5 234t43 333.5q4 169 -35 319.5t-114 244.5t-169 94q-100 0 -174 -95t-108.5 -243t-30.5 -320z" />
<glyph unicode="1" horiz-adv-x="792" d="M70 1163q-10 5 0 8l465 259q6 2 6 -5v-1253q0 -10 6 -16l110 -148q8 -8 -2 -8h-520q-10 0 -2 8l113 148q6 6 6 16v983q0 6 -4 8h-178z" />
<glyph unicode="2" horiz-adv-x="1138" d="M57 920q5 73 25.5 143.5t61 137.5t97 117.5t138.5 81t180 30.5q225 0 357.5 -99.5t132.5 -267.5q0 -79 -42.5 -165.5t-82.5 -135t-127 -143.5q-11 -13 -17 -19l-493 -522q0 -4 4 -4h276q104 0 161.5 23.5t135.5 92.5q32 27 82 82.5t84 97.5l33 42q4 4 8 2.5t2 -6.5 l-94 -402q-2 -6 -8 -6h-862q-7 0 -7 6l484 643q99 139 135.5 245.5t34.5 217.5q-1 64 -18.5 112.5t-47 74.5t-62.5 38.5t-69 12.5q-101 0 -159 -92.5t-58 -249.5q0 -7 2 -9l113 -131q4 -8 -6 -8l-388 51q-6 0 -6 9z" />
<glyph unicode="3" horiz-adv-x="1202" d="M66 403q0 9 6 9l354 63q5 0 2 -6l-111 -150q-2 -2 -2 -8q4 -128 71 -201t171 -73q109 0 181 90t75 250q3 162 -93.5 252t-254.5 90h-100q-7 0 -7 4v82q0 4 7 4h100q260 0 260 309q0 110 -55 171t-142 61q-69 0 -120.5 -43.5t-51.5 -118.5q0 -13 4 -19l107 -159 q2 -4 -2 -4l-338 43q-6 0 -6 8q37 168 152 270.5t298 102.5q200 0 324.5 -92t124.5 -240q0 -57 -20 -108t-49.5 -85.5t-66.5 -61.5t-69 -41.5t-59 -21.5q-5 -3 0 -6q69 -9 128.5 -34.5t109 -68t78 -109.5t28.5 -150q0 -125 -72.5 -229t-191 -162t-252.5 -58 q-124 0 -216 28.5t-153 86t-96.5 137t-52.5 188.5z" />
<glyph unicode="4" horiz-adv-x="1146" d="M61 381v61l5 11l604 933q5 7 10 7h254q6 0 6 -7v-935h35q36 0 49 3.5t29 22.5l65 80q3 4 5.5 2.5t2.5 -4.5v-283q0 -4 -2.5 -5t-5.5 3l-65 80q-16 19 -29.5 23t-48.5 4h-35v-205q0 -10 6 -16l111 -148q8 -8 -2 -8h-518q-10 0 -2 8l110 148q6 6 6 16v205h-585q-5 0 -5 4z M158 457q-3 -6 2 -6h491v774z" />
<glyph unicode="5" horiz-adv-x="1181" d="M88 289q-4 8 2 8l363 92q4 1 4 -0.5t-2 -5.5l-84 -164l-2 -12q0 -73 42 -121.5t117 -48.5q40 0 75.5 14t67.5 47t55 83.5t36.5 128.5t13.5 177q0 188 -71 289t-181 101q-74 0 -137 -53t-96 -152q0 -2 -2.5 -2.5t-3.5 0.5l-101 57q-2 2 -2 6l103 656q0 4 6 4h497 q156 0 207 51q4 4 4 -2l-43 -244q0 -6 -6 -6h-618q-6 0 -6 -4l-62 -393q0 -3 0.5 -4t3.5 2q37 71 118.5 117t203.5 46q231 0 362 -130t131 -337q0 -147 -77 -269t-202.5 -189.5t-268.5 -67.5q-177 0 -291.5 83.5t-155.5 242.5z" />
<glyph unicode="6" horiz-adv-x="1255" d="M102 582q0 174 75.5 333t198.5 270.5t281.5 178t321.5 66.5q4 0 4 -5v-61q-2 -4 -6 -4q-59 0 -122.5 -16t-133 -54.5t-129 -95t-109 -147t-73.5 -201.5q0 -4 4 0q88 135 266 135q122 0 217.5 -39t153.5 -106t88 -150t30 -176q0 -118 -43 -221t-114.5 -174t-167.5 -111.5 t-201 -40.5q-247 0 -394 164t-147 455zM410 498q0 -214 63.5 -337.5t171.5 -123.5t163.5 117t55.5 338q0 117 -23.5 205t-76 142t-129.5 54q-35 0 -65.5 -11.5t-60.5 -39.5t-51.5 -72t-34.5 -113.5t-13 -158.5z" />
<glyph unicode="7" horiz-adv-x="1021" d="M2 993l76 393q0 7 6 7h938q8 0 4 -9l-731 -1378q-2 -6 -6 -6h-70q-4 0 -4 6l487 1141q2 4 -4 4h-452q-67 0 -127 -57l-109 -103q-8 -8 -8 2z" />
<glyph unicode="8" horiz-adv-x="1255" d="M74 346q0 126 85.5 214.5t252.5 158.5q-131 76 -190.5 159t-59.5 197q0 69 27.5 128t73.5 100t107 70t127.5 43t135.5 14q94 0 175 -16.5t148 -51t105.5 -94t38.5 -138.5q0 -163 -309 -311l38 -20q187 -97 270 -188t83 -212q0 -146 -74 -246t-195 -145t-280 -45 q-116 0 -214.5 22t-177 67t-123 120t-44.5 174zM371 350q0 -148 68 -230.5t196 -82.5q112 0 184.5 76.5t75.5 177.5q1 51 -13 93.5t-32 69t-56 55t-60.5 41.5t-71.5 38l-148 76q-143 -126 -143 -314zM457 1167q-2 -58 13 -104t46 -77.5t57 -49t64 -37.5l78 -41 q54 44 73 103.5t17 160.5q-1 113 -51.5 170.5t-124.5 57.5q-57 0 -112.5 -50t-59.5 -133z" />
<glyph unicode="9" horiz-adv-x="1255" d="M86 913q0 156 73.5 275.5t192 180.5t260.5 61q250 0 395.5 -150.5t145.5 -437.5q0 -174 -76 -338t-198 -281.5t-281.5 -188.5t-321.5 -71q-4 0 -4 4v62q2 4 7 4q57 0 122 21t134 67t129 110.5t109 159.5t73 207q0 4 -4 0q-29 -55 -100 -98t-191 -43q-112 0 -203 42 t-146.5 109.5t-85.5 146.5t-30 158zM391 932q0 -176 56.5 -277.5t166.5 -101.5q99 0 165.5 93t66.5 280q0 209 -63.5 316.5t-174.5 107.5q-110 0 -163.5 -100.5t-53.5 -317.5z" />
<glyph unicode=":" horiz-adv-x="550" d="M113 221q0 65 46.5 111.5t110.5 46.5t111 -46.5t47 -111.5t-47 -111.5t-111 -46.5t-110.5 46.5t-46.5 111.5zM113 786q0 65 46.5 111.5t110.5 46.5t111 -47t47 -111t-46.5 -110.5t-111.5 -46.5q-64 0 -110.5 46.5t-46.5 110.5z" />
<glyph unicode=";" horiz-adv-x="555" d="M113 786q0 65 46.5 111.5t110.5 46.5t111 -47t47 -111t-46.5 -110.5t-111.5 -46.5q-64 0 -110.5 46.5t-46.5 110.5zM115 219q0 70 46 115t113 45q74 0 116 -52.5t42 -117.5q0 -165 -87.5 -282t-192.5 -117q-5 0 -5.5 2t3.5 4q68 41 111.5 110t43.5 142q0 7 -6 4 q-18 -9 -37 -9q-64 0 -105.5 45.5t-41.5 110.5z" />
<glyph unicode="&#x3c;" horiz-adv-x="1112" d="M92 467v90q0 4 4 6l971 424q4 -3 4 -4v-88q0 -6 -4 -8l-881 -375q-2 0 -2 -2t2 -2l881 -381q4 -2 4 -8v-88q-3 -4 -4 -4l-971 434q-4 2 -4 6z" />
<glyph unicode="=" horiz-adv-x="991" d="M113 328v67q0 6 6 6h753q7 0 7 -6v-67q0 -6 -7 -6h-753q-6 0 -6 6zM113 629v67q0 6 6 6h753q7 0 7 -6v-67q0 -6 -7 -6h-753q-6 0 -6 6z" />
<glyph unicode="&#x3e;" horiz-adv-x="1112" d="M41 31v88q0 6 4 8l881 381q2 0 2 2t-2 2l-881 375q-4 2 -4 8v88q0 3 0.5 3.5t2.5 0.5h1l971 -424q4 -2 4 -6v-90q0 -4 -4 -6l-971 -434q-4 3 -4 4z" />
<glyph unicode="?" horiz-adv-x="1017" d="M55 985q0 87 29.5 166t85.5 142t146 100t202 37q130 0 232.5 -37t165.5 -115t63 -188q0 -128 -84.5 -242t-263.5 -242q-48 -34 -69 -56t-24.5 -33t-7.5 -42l-8 -94q0 -4 -4 -4h-72q-6 0 -6 4l-22 240q-2 19 2 26.5t26 26.5l138 125q62 54 87 118t25 183q0 39 -10.5 80.5 t-31.5 80.5t-58.5 64t-85.5 25q-81 0 -130.5 -70t-49.5 -164q0 -8 4 -12l110 -119q4 -8 -6 -8h-377q-6 0 -6 8zM330 121q0 65 46.5 111.5t110.5 46.5q65 0 111.5 -46.5t46.5 -111.5t-46.5 -111.5t-111.5 -46.5q-64 0 -110.5 46.5t-46.5 111.5z" />
<glyph unicode="@" horiz-adv-x="1894" d="M115 733q20 147 91.5 273t186.5 221t281.5 149t365.5 54q185 0 339 -59t253 -159.5t142 -238.5t16 -291q-33 -190 -141.5 -305t-268.5 -115q-103 0 -162 50t-59 124q0 6 -4 2q-24 -39 -48.5 -69t-60 -60t-82.5 -45.5t-102 -13.5q-121 5 -198 66.5t-101.5 160t-1.5 221.5 q23 125 78 219t130 147t158.5 76.5t172.5 18.5q109 -7 163 -69t56 -134q2 -4 4 -4l248 101h4q1 -1 0 -4l-207 -598q-15 -33 -2 -69t55 -40q96 -10 180 79.5t115 260.5q26 141 -13 266t-126 212.5t-217 138.5t-281 51q-262 0 -449 -161.5t-233 -424.5q-27 -150 -7 -268 t73 -204.5t137.5 -143t186.5 -84t219 -27.5q95 0 192 28.5t156 69.5q4 2 8 -2l37 -45q3 -3 0 -6q-183 -116 -449 -119q-133 -1 -261 29t-241 94t-194.5 154t-120 217.5t-18.5 275.5zM817 495.5q-2 -50.5 8 -82.5t37 -54.5t72 -24.5q79 -4 141.5 76t98.5 202l57 197 q34 128 7 198.5t-101 79.5q-44 6 -82.5 -13t-68.5 -54t-56 -88.5t-45 -110t-35 -123.5q-15 -62 -23 -107t-10 -95.5z" />
<glyph unicode="A" horiz-adv-x="1492" d="M-4 7q1 3 4 5l39 29q83 62 119 149l399 1016q3 5 0 8l-154 56q-3 1 -2 6t5 6l374 164q11 0 13 -6q40 -146 86 -252l403 -926q43 -98 86 -145t131 -107q4 -3 3.5 -6.5t-5.5 -3.5h-553q-9 0 -4 10l76 131q4 8 2 13l-135 317q-6 14 -11.5 22t-19.5 14.5t-35 6.5h-432 q-9 0 -12 -10l-135 -348q-5 -10 2 -17l127 -129q2 -2 2.5 -4.5t-0.5 -4t-4 -1.5h-363q-4 0 -5.5 2t-0.5 5zM410 596q-4 -8 4 -8h381q18 0 23.5 11t-1.5 26l-207 489z" />
<glyph unicode="B" horiz-adv-x="1413" d="M97.5 1388q-0.5 2 0.5 3.5t4 1.5h756q193 0 306.5 -87t113.5 -223q0 -108 -68 -193t-174 -120q-8 -4 0 -4q63 -16 120 -46t105 -73.5t76.5 -104t28.5 -130.5q0 -198 -129.5 -305t-359.5 -107h-775q-10 0 -2 8l111 148q6 6 6 16v1049q0 10 -6 16l-111 147q-2 2 -2.5 4z M504 104q0 -13 8 -21.5t20 -8.5h199q336 0 336 325q0 158 -100 241t-289 83h-113q-61 0 -61 -57v-562zM504 854q0 -57 61 -57h115q94 0 158 24.5t95.5 68t43.5 89t12 102.5q0 238 -280 238h-177q-12 0 -20 -9t-8 -22v-434z" />
<glyph unicode="C" horiz-adv-x="1562" d="M100 692q0 152 54.5 287t152.5 235t243 158t316 58q123 0 222 -32.5t212 -113.5q6 -6 11 0l119 105q14 9 14 -5v-557q0 -8 -4.5 -8.5t-7.5 6.5q-43 107 -93.5 195.5t-115.5 165.5t-146 120.5t-170 43.5q-149 0 -263 -88q-116 -86 -174 -236q-55 -140 -54 -311v-23 q5 -186 64 -333.5t170 -234.5t257 -87q66 0 126 19.5t109 56t90.5 79.5t79 101t64.5 108.5t56 112.5q3 6 7.5 4.5t4.5 -6.5v-504q0 -12 -12 -4l-113 88q-6 4 -12 0q-96 -64 -214.5 -96.5t-228.5 -32.5q-172 0 -316 56t-241.5 153.5t-152 231.5t-54.5 288z" />
<glyph unicode="D" horiz-adv-x="1622" d="M97.5 1388q-0.5 2 0.5 3.5t4 1.5h590q410 0 620 -178.5t210 -522.5q0 -122 -30 -225.5t-95 -190.5t-161.5 -147.5t-235 -94.5t-310.5 -34h-588q-10 0 -2 8l111 148q6 6 6 16v1049q0 10 -6 16l-111 147q-2 2 -2.5 4zM504 104q0 -13 8 -21.5t20 -8.5h138q267 0 409 157.5 t142 458.5q0 166 -41 289t-116 196t-173.5 108.5t-220.5 35.5h-138q-12 0 -20 -9t-8 -22v-1184z" />
<glyph unicode="E" horiz-adv-x="1345" d="M97.5 1388q-0.5 2 0.5 3.5t4 1.5h861h20.5h22t21.5 0.5t23.5 1t23 1.5t25.5 2.5t24.5 3.5t26 5t25.5 7t27 9q6 3 6 -2v-383q0 -6 -3.5 -6t-6.5 6l-127 215q-7 12 -13 21.5t-13 16.5t-11.5 12t-12.5 8t-11.5 5t-14.5 2.5t-15 0.5h-18h-20h-410q-12 0 -20 -9t-8 -22v-452 q0 -29 16.5 -46.5t44.5 -17.5h254q42 0 65 8t48 35l115 123q5 4 7.5 3t2.5 -5v-424q0 -4 -1.5 -5.5t-4 -0.5t-4.5 4l-121 149q-31 39 -107 39h-254q-28 0 -44.5 -17t-16.5 -46v-539q0 -22 18 -22h324q141 0 211 55l252 203q5 3 7 1.5t1 -5.5l-113 -322q-2 -6 -8 -6h-1094 q-10 0 -2 8l111 148q6 6 6 16v1049q0 10 -6 16l-111 147q-2 2 -2.5 4z" />
<glyph unicode="F" horiz-adv-x="1245" d="M98 3q0 3 2 5l111 148q6 6 6 16v1049q0 10 -6 16l-111 147q-3 3 -2 6t4 3h930h20.5h21t17.5 0.5t19.5 1l18 2t21 4t20.5 5.5t25.5 7.5t27.5 9.5q6 3 6 -2v-395q0 -6 -3.5 -6t-6.5 6l-115 195q-40 66 -65.5 82t-80.5 16h-426q-12 0 -20 -9t-8 -22v-450q0 -29 16.5 -46.5 t44.5 -17.5h244q45 0 73 8t52 35l115 123q3 3 6.5 2t3.5 -4v-420q0 -6 -4.5 -7.5t-7.5 3.5l-119 148q-31 38 -119 38h-244q-28 0 -44.5 -17t-16.5 -46v-465q0 -10 6 -16l111 -148q2 -2 1.5 -5t-4.5 -3h-516q-4 0 -4 3z" />
<glyph unicode="G" horiz-adv-x="1638" d="M100 682q0 157 62.5 297.5t166.5 238.5t244 155t291 57q129 0 227 -34.5t199 -105.5q5 -5 10 0l134 76q14 9 14 -4v-520q0 -6 -5 -8.5t-11 6.5q-68 134 -127 224t-127 157.5t-144.5 98t-169.5 30.5q-150 0 -257.5 -86t-159.5 -235q-48 -138 -48 -317v-28q8 -309 130 -478 t341 -169q75 0 136 29t98 78t56.5 108.5t19.5 124.5v143q0 8 -4 10l-246 127q-4 1 -3.5 6t5.5 5h622q3 0 4 -3t-2 -6l-63 -51q-26 -23 -35.5 -49.5t-9.5 -73.5v-479q0 -12 -8 -4l-174 127q-6 3 -11 -2q-101 -94 -201 -129t-212 -35q-121 0 -232 31t-203.5 92.5t-161 147 t-107 201t-38.5 247.5z" />
<glyph unicode="H" horiz-adv-x="1642" d="M97.5 1388q-0.5 2 0.5 3.5t4 1.5h516q3 0 4.5 -1.5t1 -3.5t-2.5 -4l-111 -147q-6 -6 -6 -16v-392q0 -29 16.5 -46t44.5 -17h512q28 0 45 17t17 46v392q0 10 -6 16l-111 147q-2 2 -2.5 4t0.5 3.5t4 1.5h516q4 0 4.5 -3t-2.5 -6l-110 -147q-7 -7 -7 -16v-1049q0 -9 7 -16 l110 -148q5 -8 -2 -8h-516q-7 0 -2 8l111 148q6 8 6 16v444q0 29 -17 46.5t-45 17.5h-512q-28 0 -44.5 -17.5t-16.5 -46.5v-444q0 -10 6 -16l111 -148q8 -8 -3 -8h-516q-10 0 -2 8l111 148q6 6 6 16v1049q0 10 -6 16l-111 147q-2 2 -2.5 4z" />
<glyph unicode="I" horiz-adv-x="722" d="M97.5 1388q-0.5 2 0.5 3.5t4 1.5h519q4 0 4.5 -3t-2.5 -6l-111 -147q-6 -6 -6 -16v-1049q0 -10 6 -16l111 -148q8 -8 -2 -8h-519q-10 0 -2 8l111 148q6 6 6 16v1049q0 10 -6 16l-111 147q-2 2 -2.5 4z" />
<glyph unicode="J" horiz-adv-x="790" d="M-14 -111q0 5 2.5 5.5t5.5 -3.5l149 -210q42 -58 88 -58q27 0 41.5 18t14.5 48v1532q0 10 -6 16l-111 147q-2 2 -2.5 4t0.5 3.5t4 1.5h516q4 0 4.5 -3t-2.5 -6l-110 -147q-7 -7 -7 -16v-1309q0 -172 -95 -277.5t-271 -105.5q-60 0 -125.5 19.5t-89.5 43.5q-6 6 -6 11v286 z" />
<glyph unicode="K" horiz-adv-x="1495" d="M97.5 1388q-0.5 2 0.5 3.5t4 1.5h516q3 0 4.5 -1.5t1 -3.5t-2.5 -4l-111 -147q-6 -6 -6 -16v-684q0 -16 8 -20t18 9l596 682q4 4 0 9l-137 167q-1 1 -1.5 3t0.5 4t5 2h461q3 0 4 -2.5t-2 -4.5q-10 -8 -59.5 -44t-69 -51.5t-59.5 -49t-74.5 -68.5t-71.5 -77l-151 -172 q-6 -6 -2 -15l262 -538q75 -149 129.5 -230.5t126.5 -132.5q3 -2 2 -5t-4 -3h-533q-6 0 -2 8l76 109q2 4 0 8l-270 547q-2 4 -6 0l-215 -248q-13 -16 -17 -22.5t-9 -22t-5 -35.5v-172q0 -10 6 -16l111 -148q8 -8 -3 -8h-516q-10 0 -2 8l111 148q6 6 6 16v1049q0 10 -6 16 l-111 147q-2 2 -2.5 4z" />
<glyph unicode="L" horiz-adv-x="1140" d="M97.5 1388q-0.5 2 0.5 3.5t4 1.5h516q3 0 4.5 -1.5t1 -3.5t-2.5 -4l-111 -147q-6 -6 -6 -16v-1137q0 -23 18 -23h221q67 0 107 16.5t78 51.5l225 203q5 3 7 1.5t1 -5.5l-94 -322q-2 -6 -8 -6h-957q-10 0 -2 8l111 148q6 6 6 16v1049q0 10 -6 16l-111 147q-2 2 -2.5 4z " />
<glyph unicode="M" horiz-adv-x="1835" d="M90 8l111 148q6 6 6 16v1069q0 8 -6 14l-101 131q-7 7 2 7h435q4 0 4 -4q0 -87 47 -199l299 -735q25 -63 33 -95q0 -8 4 0l321 848q44 113 51 181q0 4 7 4h403l2 -4l-74 -101q-16 -20 -16 -80v-1036q0 -10 6 -16l111 -148q8 -8 -2 -8h-516q-11 0 -3 8l111 148q6 6 6 16 v1038l-465 -1206q-2 -4 -6 -4h-135q-4 0 -4 6q1 9 1 20q0 72 -54 199l-379 926q0 -3 -2 -4v-975q0 -10 6 -16l110 -148q8 -8 -2 -8h-309q-10 0 -2 8z" />
<glyph unicode="N" horiz-adv-x="1533" d="M88 1386q-7 7 2 7h422q4 0 8 -7q14 -50 34.5 -93t72.5 -119l624 -959q4 -4 4 2v1016q0 10 -6 16l-104 148q-8 8 2 8h297q10 0 2 -8l-105 -148q-6 -6 -6 -16v-1127q0 -15 6 -24l50 -74q3 -3 2 -5.5t-4 -2.5h-371q-6 0 -6 6q-18 105 -105 238l-592 893q-4 4 -4 -2v-963 q0 -10 6 -16l105 -148q8 -8 -2 -8h-297q-10 0 -2 8l104 148q6 6 6 16v1083q0 11 -6 17z" />
<glyph unicode="O" d="M100 692q0 200 105.5 370.5t281.5 269t377 98.5q151 0 291 -57.5t244 -155.5t166.5 -235.5t62.5 -289.5q0 -158 -63 -295.5t-168.5 -231.5t-244 -148t-288.5 -54t-288.5 54t-244 148t-168.5 231.5t-63 295.5zM408 692q0 -185 56.5 -333t166.5 -235t256 -87 q109 0 193.5 50t136.5 139.5t78 207t26 258.5q0 186 -55.5 334t-166.5 236t-259 88q-111 0 -195.5 -49.5t-135.5 -139.5t-76 -207.5t-25 -261.5z" />
<glyph unicode="P" horiz-adv-x="1320" d="M100 8l111 148q6 6 6 16v1049q0 10 -6 16l-109 149q-4 7 4 7h689q217 0 363.5 -124.5t146.5 -301.5q0 -104 -41.5 -190t-112 -142t-162 -86.5t-194.5 -30.5h-230q-28 0 -44.5 -17t-16.5 -46v-283q0 -10 6 -16l111 -148q8 -8 -3 -8h-516q-10 0 -2 8zM504 655 q0 -29 16.5 -46t44.5 -17h158q63 0 112.5 17.5t80.5 49.5t52.5 68.5t31.5 81.5t14 81t4 75q0 45 -9.5 91.5t-31.5 94.5t-55 85t-84.5 60t-114.5 23h-211q-8 0 -8 -8v-656z" />
<glyph unicode="Q" d="M100 692q0 200 105.5 370.5t281.5 269t377 98.5q151 0 290 -57t241.5 -153.5t163.5 -233.5t61 -290q0 -146 -48.5 -272.5t-123.5 -208.5q-4 -6 -6 -14q-2 -14 -2 -28t2.5 -45t15.5 -62.5t34.5 -68.5t63 -74.5t97.5 -69.5q3 -1 1.5 -5t-5.5 -4q-161 0 -269 56t-151 135 q-4 4 -8 2q-133 -74 -357 -74q-150 0 -288.5 54t-244 148t-168.5 231.5t-63 295.5zM408 692q0 -184 56.5 -331.5t166.5 -235.5t256 -88q218 0 331 177q109 172 109 462v16q-2 186 -59 334t-168.5 236t-259.5 88q-111 0 -195.5 -50t-135.5 -140t-76 -207.5t-25 -260.5z" />
<glyph unicode="R" horiz-adv-x="1476" d="M100 8l111 148q6 6 6 16v1045q0 9 -6 18l-109 154q-2 4 2 4h695q229 0 359 -89t130 -253q0 -122 -78 -205t-215 -121q-1 0 -1 -2t1 -2q164 -42 246 -137t82 -254v-160q0 -5 6 -14l107 -146q8 -10 -2 -10h-347q-28 0 -44.5 17t-16.5 46v293q0 162 -73.5 241t-243.5 79 h-144q-28 0 -44.5 -17.5t-16.5 -46.5v-440q0 -10 6 -16l111 -148q8 -8 -3 -8h-516q-10 0 -2 8zM504 813q0 -29 16.5 -46t44.5 -17h133q85 0 145.5 25.5t91 70t43.5 91.5t13 103q0 47 -6 84.5t-23.5 75t-45.5 63t-75.5 41t-111.5 15.5h-217q-8 0 -8 -8v-498z" />
<glyph unicode="S" horiz-adv-x="1206" d="M100 6v559q0 3 2 4.5t4 0.5t3 -5q39 -103 91.5 -194t119 -167.5t149 -121.5t168.5 -45q123 0 197.5 60t80.5 147q1 11 1 22q0 76 -36 122q-42 54 -155 110l-389 186q-117 56 -176.5 151t-59.5 207q0 95 35.5 170t98 122t145.5 71.5t182 24.5q197 0 350 -119q5 -5 11 0 l94 82q3 5 8.5 4t5.5 -8v-463q0 -13 -8 0q-40 66 -64 104t-59.5 89.5t-61.5 80.5t-62.5 61.5t-71 49.5t-77 28t-89.5 11q-101 0 -169 -42.5t-69 -125.5v-6q1 -58 35 -104q36 -48 123 -89l430 -205q147 -70 202.5 -161t55.5 -211q0 -87 -37 -167t-102.5 -141.5t-163.5 -98 t-213 -36.5q-236 0 -410 131q-6 4 -10 0l-103 -90q-6 -6 -6 2z" />
<glyph unicode="T" horiz-adv-x="1220" d="M-16 1051l63 370q0 5 6 2q15 -5 28 -9.5t27.5 -7.5t23.5 -5.5t24 -3.5t21 -2t23 -1.5t20 -0.5h22.5h21.5h690h21.5h22.5t20 0.5t23 1.5t21 2t24 3.5t23.5 5.5t27.5 7.5t28 9.5q6 3 6 -2l66 -370q2 -6 -2 -8t-8 4l-180 196q-24 25 -39 38.5t-42.5 25.5t-58.5 12h-92 q-28 0 -44.5 -17.5t-16.5 -46.5v-1083q0 -10 6 -16l110 -148q8 -8 -2 -8h-518q-10 0 -2 8l111 148q6 6 6 16v1083q0 29 -17 46.5t-45 17.5h-92q-31 0 -58 -12.5t-42 -25.5t-39 -38l-178 -196q-4 -4 -7.5 -4t-2.5 8z" />
<glyph unicode="U" horiz-adv-x="1566" d="M93.5 1388q-0.5 2 0.5 3.5t4 1.5h516q4 0 4.5 -3t-2.5 -6l-110 -147q-6 -6 -6 -16v-742q0 -191 100.5 -298t280.5 -107q84 0 157.5 27t131 79.5t91 137t33.5 190.5v713q0 10 -6 16l-110 147q-2 2 -2.5 4t0.5 3.5t4 1.5h309q4 0 4.5 -3t-2.5 -6l-111 -147q-6 -6 -6 -16 v-672q0 -274 -145 -430t-398 -156q-135 0 -244.5 32.5t-194.5 100.5t-132 182.5t-47 268.5v674q0 10 -6 16l-111 147q-2 2 -2.5 4z" />
<glyph unicode="V" horiz-adv-x="1384" d="M0 1386q-3 3 0 6q0 1 2 1h551q5 -1 2 -7l-98 -129v-6l303 -786q49 -120 49 -176q0 -8 4 0l371 938q2 6 0 8l-90 151q-3 3 0 6q0 1 2 1h301q5 -1 2 -7q-68 -63 -104.5 -117t-75.5 -151l-449 -1112q-2 -6 -8 -6h-135q-9 0 -9 8q-9 86 -73 244l-334 819q-83 208 -211 315z " />
<glyph unicode="W" horiz-adv-x="1923" d="M0 1386q-3 3 0 6q0 1 2 1h547q5 -1 2 -7l-102 -135v-6l208 -842q37 -156 37 -264q0 -8 4 0l209 932q3 11 0 21q-1 3 -14.5 38.5t-19.5 51t-22 50.5t-29 56.5t-33 49t-41 48.5q-3 3 0 6q0 1 2 1h493q5 -1 2 -7l-90 -114l-2 -10l223 -914q33 -145 33 -223q0 -8 4 0 l301 1102q2 6 0 8l-82 151q-3 3 0 6q0 1 2 1h295q5 -1 2 -7q-69 -64 -101 -113t-56 -132l-316 -1135q-2 -6 -8 -6h-274q-9 0 -9 8q-18 154 -41 250l-172 674q-4 8 -4 -2l-211 -924q-2 -6 -8 -6h-270q-8 0 -8 8q-12 155 -39 252l-207 791q-34 124 -84 199t-123 136z" />
<glyph unicode="X" horiz-adv-x="1392" d="M11 4.5q-1 4.5 5 7.5q148 97 285 271l272 348l-311 483q-130 199 -242 272q-7 7 5 7h567q5 -1 2 -7l-82 -124q-4 -4 0 -9l248 -385l297 379q5 8 -2 15l-123 120q-2 2 -2.5 4.5t0.5 4.5t4 2h360q4 0 5.5 -2.5t0.5 -5.5t-4 -5q-9 -8 -32.5 -28.5t-38 -33.5t-37 -35 t-46 -47.5t-48.5 -55.5l-293 -375l327 -506q63 -97 137.5 -180t112.5 -111q3 -3 2 -5.5t-4 -2.5h-559q-4 1 -2 6l82 125v6l-281 430l-327 -420q-6 -10 0 -16l127 -121q2 -2 2.5 -4.5t-0.5 -4t-4 -1.5h-396q-6 0 -7 4.5z" />
<glyph unicode="Y" horiz-adv-x="1302" d="M-8 1386q-3 3 0 6q0 1 2 1h532q5 -1 2 -7l-92 -120v-6l242 -429q56 -106 59 -151q0 -4 4 0l342 559q2 6 0 8l-92 139q-3 3 0 6q0 1 2 1h320q5 -1 2 -7q-112 -98 -150 -157l-325 -527q-29 -48 -29 -102v-428q0 -10 6 -16l111 -148q8 -8 -2 -8h-518q-10 0 -2 8l110 148 q6 6 6 16v322q0 61 -28 108l-340 563q-93 172 -162 221z" />
<glyph unicode="Z" horiz-adv-x="1208" d="M18 8q34 22 81.5 82t90.5 135l572 1063q7 17 1 24t-20 7h-383q-51 0 -74 -11.5t-48 -54.5l-127 -215q-3 -6 -7 -6t-4 6v383q0 5 6 2q13 -5 27 -9t25.5 -7t26.5 -5t24.5 -3.5t25 -2.5t23 -1.5t24 -1t22 -0.5h22h20.5h811q5 -1 2 -7q-49 -56 -102 -149l-625 -1141 q-6 -9 -3 -15.5t13 -6.5h242q101 0 152 13t94 56l239 263q3 4 7 2t2 -7l-119 -395q-2 -6 -8 -6h-1031q-10 0 -2 8z" />
<glyph unicode="[" horiz-adv-x="616" d="M154 -242v1684q0 43 43 43h372q6 0 6 -4v-56q0 -4 -6 -4h-108q-11 0 -15 -3.5t-4 -14.5v-1606q0 -11 4 -14.5t15 -3.5h108q6 0 6 -4v-56q0 -4 -6 -4h-372q-43 0 -43 43z" />
<glyph unicode="\" horiz-adv-x="598" d="M53 1386q-2 7 4 7h76q8 0 8 -7l404 -1380q2 -6 -4 -6h-76q-8 0 -8 6z" />
<glyph unicode="]" horiz-adv-x="616" d="M41 -225q0 4 6 4h109q11 0 14.5 3t3.5 15v1606q0 12 -3.5 15t-14.5 3h-109q-6 0 -6 4v56q0 4 6 4h373q43 0 43 -43v-1684q0 -43 -43 -43h-373q-6 0 -6 4v56z" />
<glyph unicode="^" horiz-adv-x="1153" d="M115 815l422 664q3 6 8 6h61q7 0 10 -6l422 -664q4 -6 -4 -6h-98q-6 0 -8 6l-353 574l-350 -574q-3 -6 -8 -6h-98q-8 0 -4 6z" />
<glyph unicode="_" horiz-adv-x="1705" d="M-43 -215q0 4 6 4h1778q6 0 6 -4v-72q0 -4 -6 -4h-1778q-6 0 -6 4v72z" />
<glyph unicode="`" horiz-adv-x="630" d="M141 1300q0 39 30 69t75 30q71 0 112 -70l156 -274q4 -4 -2 -4h-72q-6 0 -12 4l-209 116q-78 43 -78 129z" />
<glyph unicode="a" horiz-adv-x="1138" d="M78 254q0 122 99.5 199t266.5 98l197 24q102 11 102 150q0 252 -204 252q-68 0 -120.5 -45t-66.5 -109q-2 -6 2 -10l105 -121q4 -8 -4 -8h-324q-6 0 -6 8q25 150 150 254.5t294 104.5q71 0 135 -14t121.5 -45t99.5 -77t66.5 -114t24.5 -152v-293q0 -132 14.5 -208 t48.5 -144q2 -4 -4 -4q-91 0 -183 26t-134 54q-6 4 -10 0q-86 -117 -287 -117q-183 0 -283 81t-100 210zM373 270q0 -109 46.5 -171t133.5 -62q72 0 131 62.5t59 185.5v260q0 8 -4 0q-24 -31 -98 -41l-102 -15q-75 -11 -120.5 -65t-45.5 -154z" />
<glyph unicode="b" horiz-adv-x="1271" d="M59 1366q-10 5 0 8l373 111q6 2 6 -4v-647q0 -8 4 0q15 38 37.5 72.5t58 69t89 55t118.5 20.5q94 0 173.5 -32t141 -95.5t96 -167t34.5 -238.5q0 -112 -28.5 -206.5t-74.5 -157.5t-106.5 -107t-123 -64t-124.5 -20q-107 0 -172.5 40t-114.5 108q-4 4 -10 0 q-45 -30 -159.5 -70t-172.5 -41q-6 0 -4 6q72 144 72 318v966q0 6 -4 8zM432 508q0 -221 72.5 -346t165.5 -125q98 0 161 131.5t66 349.5v17q1 183 -61 309q-64 132 -164 133q-58 0 -114 -67t-91 -176.5t-35 -225.5z" />
<glyph unicode="c" horiz-adv-x="1163" d="M80 498q0 112 42.5 212.5t118 176t187.5 120t244 44.5q192 0 313 -91t145 -268q0 -8 -6 -8h-323q-10 0 -6 8l114 113q2 2 2 8q-13 75 -75 119.5t-140 44.5q-145 0 -229 -123t-84 -338q0 -213 83 -346t222 -133q114 0 178 69t92 195q0 3 3 5t6 -1l157 -108q4 -5 0 -9 q-110 -128 -218.5 -176.5t-250.5 -48.5q-272 0 -423.5 145.5t-151.5 389.5z" />
<glyph unicode="d" horiz-adv-x="1220" d="M78 471q0 165 55.5 297t157.5 207.5t233 75.5q112 0 186.5 -48.5t110.5 -130.5q4 -8 4 0v418q0 6 -4 8l-108 68q-10 5 0 8l372 111q7 2 7 -4v-1157q0 -176 71 -318q2 -6 -4 -6q-58 1 -172.5 41t-159.5 70q-6 4 -10 0q-106 -148 -293 -148q-71 0 -133 15.5t-120.5 52.5 t-100.5 93.5t-67 145.5t-25 201zM356 432q3 -190 59.5 -292.5t153.5 -102.5q113 0 186.5 119.5t73.5 343.5q0 227 -74 352t-171 125q-99 1 -165 -151q-63 -145 -63 -373v-21z" />
<glyph unicode="e" horiz-adv-x="1173" d="M80 502q0 243 156.5 396t402.5 153q233 0 360.5 -121t133.5 -363q0 -6 -5 -6h-731q-22 0 -22 -22q-1 -28 -1 -54q0 -109 22 -197q28 -110 102 -180.5t184 -70.5q56 0 106 27t86 70t61 90t38 95q3 8 8 3l137 -103q3 -3 0 -8q-55 -111 -191 -179.5t-282 -68.5 q-256 0 -410.5 144.5t-154.5 394.5zM381 639q0 -4 4 -4h440q9 0 9 10q0 83 -22 156.5t-72 124.5t-119 51q-71 0 -127.5 -52t-84.5 -128.5t-28 -157.5z" />
<glyph unicode="f" horiz-adv-x="602" d="M20 942v68q0 4 7 4h114q4 0 4 4q0 216 98 341.5t261 125.5h133q50 0 90 10q5 0 2 -6l-143 -297q-3 -3 -6 2l-78 166q-20 51 -43 51q-16 0 -26 -19.5t-14.5 -56t-5.5 -66t-1 -73.5v-178q0 -4 4 -4h196q6 0 6 -4v-68q0 -4 -6 -4h-174q-11 0 -18.5 -6.5t-7.5 -16.5v-745 q0 -8 6 -14l125 -148q8 -8 -2 -8h-494q-10 0 -2 8l96 148q4 6 4 14v745q0 10 -7.5 16.5t-18.5 6.5h-92q-7 0 -7 4z" />
<glyph unicode="g" horiz-adv-x="1054" d="M86 -168q6 146 168 209q6 3 0 6q-60 27 -95.5 79t-35.5 107q0 64 34.5 118.5t92.5 72.5q3 1 3.5 4t-1.5 4q-56 30 -104 107t-48 155q0 106 65 189t167 125.5t219 42.5q148 0 254 -62q5 -3 10 0q39 25 88 25h176q8 0 2 -6l-125 -136q-5 -5 -2 -10q35 -71 35 -135 q0 -91 -37.5 -166.5t-99.5 -123t-140 -73.5t-161 -26q-93 0 -191 35q-4 2 -10 2q-18 -3 -31 -21.5t-14 -44.5v-5q0 -48 53 -72q55 -25 146 -25h184q164 0 262.5 -70.5t98.5 -202.5q0 -118 -67.5 -214.5t-182.5 -149.5t-252 -53q-231 0 -349 82q-112 78 -112 219v14z M338 -174q0 -108 61.5 -172t165.5 -64q145 0 224 66.5t79 169.5q0 44 -15.5 74t-44.5 45.5t-62 21.5t-76 6h-162q-63 0 -98 13l-9 -2q-26 -20 -44.5 -66.5t-18.5 -91.5zM365 694q0 -130 50.5 -207t135.5 -77q89 0 136.5 77.5t47.5 208.5q0 134 -47.5 207.5t-136.5 73.5 q-85 0 -135.5 -73.5t-50.5 -209.5z" />
<glyph unicode="h" horiz-adv-x="1286" d="M88 1366q-10 5 0 8l373 111q6 2 6 -4v-592q0 -4 4 0q39 67 117.5 114.5t181.5 47.5q167 0 271 -88t104 -250v-539q0 -6 6 -18l78 -148q8 -8 -2 -8h-459q-10 0 -2 8l106 148q7 9 7 18v619q0 178 -156 178q-103 0 -179.5 -102.5t-76.5 -280.5v-414q0 -10 6 -18l105 -148 q8 -8 -3 -8h-458q-10 0 -2 8l80 148q6 12 6 18v1116q0 6 -4 8z" />
<glyph unicode="i" horiz-adv-x="591" d="M59 932l109 -68q4 -2 4 -8v-682q0 -9 -6 -18l-92 -148q-8 -8 2 -8h459q10 0 2 8l-93 148q-6 9 -6 18v873q0 6 -6 4l-373 -111q-10 -3 0 -8zM147 1327q0 65 46.5 111.5t111.5 46.5t111.5 -46.5t46.5 -111.5t-46.5 -111.5t-111.5 -46.5t-111.5 46.5t-46.5 111.5z" />
<glyph unicode="j" horiz-adv-x="577" d="M-152 -344q-4 -4 0 -8q38 -49 104.5 -84t145.5 -35q52 0 111 24.5t114 71t91.5 126t36.5 175.5v1121q0 6 -7 4l-372 -115q-10 -3 0 -8l108 -68q4 -2 4 -8v-1161q0 -40 -18.5 -63t-48.5 -23q-67 0 -82 102l-25 166q-1 4 -6 2zM160 1327q0 65 46.5 111.5t110.5 46.5 q65 0 111.5 -46.5t46.5 -111.5t-46.5 -111.5t-111.5 -46.5q-64 0 -110.5 46.5t-46.5 111.5z" />
<glyph unicode="k" horiz-adv-x="1208" d="M70 1366q-10 5 0 8l372 111q7 2 7 -4v-1012q0 -14 12 -2l440 430q2 2 0 4l-113 105q-1 1 -1.5 3t1 3.5t5.5 1.5h387q3 0 4 -2t-2 -4q-18 -12 -69.5 -45.5t-73 -48.5t-57 -43t-64.5 -56l-95 -94q-4 -4 -2 -8l166 -365q91 -214 230 -340q3 -2 1.5 -5t-4.5 -3h-471 q-6 0 -2 8l76 101q2 4 0 8l-190 407q-2 4 -6 0l-152 -147q-12 -12 -16 -21.5t-4 -29.5v-156q0 -10 4 -14l106 -148q8 -8 -2 -8h-459q-10 0 -2 8l82 148q4 4 4 14v1120q0 6 -4 8z" />
<glyph unicode="l" horiz-adv-x="591" d="M59 1366q-10 5 0 8l373 111q6 2 6 -4v-1307q0 -6 6 -18l93 -148q8 -8 -2 -8h-459q-10 0 -2 8l92 148q6 12 6 18v1116q0 6 -4 8z" />
<glyph unicode="m" horiz-adv-x="1705" d="M59 948q-10 5 0 8l373 111q6 2 6 -4v-123q1 -4 4 0q30 46 92 78.5t136 32.5q120 0 189.5 -42t105.5 -130q4 -12 4 0q39 83 110.5 127.5t171.5 44.5q155 0 242.5 -77.5t87.5 -236.5v-563q0 -6 6 -18l64 -148q8 -8 -2 -8h-418q-10 0 -2 8l80 148q6 12 6 18v649 q0 148 -135 148q-68 0 -124.5 -66.5t-56.5 -159.5v-571q0 -4 7 -18l86 -148q8 -8 -2 -8h-426q-10 0 -2 8l86 148q6 12 6 18v647q0 71 -33 110.5t-88 39.5q-87 0 -141 -65t-54 -142v-590q0 -6 6 -18l76 -148q8 -8 -2 -8h-418q-10 0 -2 8l68 148q6 12 6 18v690q0 6 -4 8z" />
<glyph unicode="n" horiz-adv-x="1255" d="M59 948q-10 5 0 8l373 111q6 2 6 -4v-174q0 -4 4 0q83 162 322 162q153 0 252.5 -91t99.5 -262v-524q0 -6 6 -18l78 -148q8 -8 -2 -8h-459q-10 0 -2 8l107 148q6 8 6 18v604q0 193 -160 193q-106 0 -179 -102t-73 -281v-414q0 -10 6 -18l105 -148q8 -8 -2 -8h-459 q-10 0 -2 8l80 148q6 12 6 18v698q0 7 -4 9z" />
<glyph unicode="o" horiz-adv-x="1265" d="M74 506q0 145 77 271.5t205.5 200t274.5 73.5t275.5 -73.5t207.5 -200t78 -271.5q0 -163 -76 -288t-203 -190t-282 -65q-154 0 -280.5 66.5t-201.5 191.5t-75 285zM387 506q0 -132 27 -237t83 -168.5t134 -63.5q117 0 183.5 133t66.5 336q0 223 -67 347t-183 124 q-121 0 -182.5 -121.5t-61.5 -349.5z" />
<glyph unicode="p" horiz-adv-x="1294" d="M59 946q-10 5 0 8l373 111q6 2 6 -4v-227q0 -8 4 0q36 83 118 150t188 67q98 0 181 -32t147 -95.5t100 -168t36 -239.5q0 -112 -29.5 -206t-77.5 -156.5t-110.5 -106.5t-127 -64t-128.5 -20q-99 0 -177.5 47t-119.5 127q-4 4 -4 -2v-432q0 -6 6 -18l107 -148q8 -8 -2 -8 h-459q-10 0 -2 8l78 148q6 12 6 18v1167q0 7 -4 9zM434 514q0 -217 77 -344t173 -127q100 0 168.5 128.5t71.5 342.5v17q0 183 -62 309q-65 133 -164 133q-59 0 -120.5 -66.5t-102.5 -174.5t-41 -218z" />
<glyph unicode="q" horiz-adv-x="1265" d="M82 516q0 247 132 391t351 144q97 0 173 -49t114 -128q2 -4 6 0l262 193q3 4 4.5 2t1.5 -6v-1360q0 -4 7 -18l77 -148q8 -8 -2 -8h-458q-10 0 -2 8l106 148q6 8 6 18v426q0 11 -6 2q-98 -168 -291 -168q-96 0 -180.5 33t-152.5 97.5t-108 173.5t-40 249zM360 514 q3 -224 64.5 -350.5t173.5 -126.5q114 0 188 123t74 354q0 111 -23.5 202t-62.5 146.5t-85 85t-93 29.5q-94 0 -166 -137q-70 -131 -70 -311v-15z" />
<glyph unicode="r" horiz-adv-x="784" d="M61 1006q-8 8 2 8h308q8 0 10 -6l47 -199q0 -8 4 0q11 31 35 69.5t58.5 78.5t82.5 67t97 27q59 0 118 -27q3 -1 4.5 -3t1.5 -3v-2q0 -6 -19.5 -76.5t-39.5 -137.5l-20 -67q-3 -6 -9 0l-151 187q-4 4 -6 2q-8 -7 -21 -21.5t-37.5 -50.5t-43.5 -78.5t-33.5 -108 t-14.5 -135.5v-356q0 -6 6 -18l92 -148q8 -8 -2 -8h-454q-6 0 -2 8l88 148q6 12 6 18v686q0 8 -4 12z" />
<glyph unicode="s" horiz-adv-x="1038" d="M55 266q0 8 4 8l271 82q4 0 4 -4l-55 -141q-3 -9 -3 -12q12 -73 90 -117.5t179 -44.5q102 0 167.5 45.5t65.5 122.5q0 55 -37 88.5t-114 62.5l-297 109q-114 40 -172 111.5t-58 160.5q0 96 63 169t163.5 109t218.5 36q85 0 163.5 -24.5t143.5 -80t88 -133.5q3 -6 -4 -10 l-231 -66q-3 -2 -4.5 -0.5t-0.5 4.5l43 129q4 7 0 11q-58 96 -211 96q-96 0 -160.5 -33t-64.5 -88q0 -49 46 -83.5t126 -63.5l242 -86q260 -91 260 -285q0 -109 -59 -195.5t-158.5 -133t-220.5 -46.5q-94 0 -171.5 16.5t-142 51.5t-109.5 94.5t-65 140.5z" />
<glyph unicode="t" horiz-adv-x="626" d="M18 942v68q0 4 7 4h122q5 0 5 4v139q0 5 -5 8l-84 58q-10 5 0 8l349 104q6 2 6 -4v-313q0 -4 2 -4h196q7 0 7 -4v-68q0 -4 -7 -4h-174q-24 0 -24 -23v-800q0 -27 13 -41.5t34 -16.5q30 -3 53 27q17 21 49 74q3 5 6 2l70 -56q3 -3 -2 -8q-45 -66 -97 -100 q-50 -33 -129 -33h-5q-258 3 -258 275v677q0 10 -8 16.5t-19 6.5h-100q-7 0 -7 4z" />
<glyph unicode="u" horiz-adv-x="1273" d="M59 946q-10 5 0 8l373 113l6 -4v-809q0 -104 43 -160.5t119 -56.5q113 0 184.5 87t71.5 200v540q0 6 -4 8l-109 76q-10 5 0 8l373 109l6 -4v-737q0 -174 72 -318q2 -6 -4 -6q-58 1 -168.5 40t-155.5 69q-6 4 -10 0q-109 -146 -311 -146q-75 0 -139 18t-118 55.5 t-85 104.5t-31 156v565q0 6 -4 8z" />
<glyph unicode="v" horiz-adv-x="1064" d="M-8 1008q-2 4 2 6h452q3 0 4 -2t-1 -4l-74 -117v-6l225 -611q16 -45 18 -75q0 -3 2 -3t3 3l276 686q2 6 0 8l-65 115q-2 4 2 6h254q8 0 2 -6q-96 -96 -138 -203l-333 -799q-2 -6 -9 -6h-192q-8 0 -8 8q-10 79 -31 127l-264 670q-62 144 -125 203z" />
<glyph unicode="w" horiz-adv-x="1544" d="M-8 1008q-2 4 2 6h467q4 -1 2 -6l-74 -117v-6l156 -658q3 -13 8 -39t6 -32q0 -8 4 0l180 616l-22 70q-34 100 -105 166q-2 4 2 6h435q5 0 2 -6l-51 -115v-8l155 -658q8 -31 15 -71q0 -8 4 0l215 729q2 6 0 8l-70 115q-2 4 2 6h246q4 -1 2 -6q-69 -60 -109 -158l-266 -844 q-2 -6 -8 -6h-244q-8 0 -8 8q-5 74 -14 121l-138 537l-202 -660q-2 -6 -9 -6h-243q-8 0 -8 8q-5 79 -15 121l-186 676q-40 118 -131 203z" />
<glyph unicode="x" horiz-adv-x="1083" d="M0 6q97 64 205 189l231 266l-192 291q-84 123 -146 189q-34 36 -69 67q-6 6 4 6h497q4 -1 2 -6l-83 -107q-4 -4 0 -8l157 -238l203 234q4 6 0 10l-113 109q-6 6 2 6h324q6 0 0 -6q-9 -9 -51.5 -50t-77 -77t-72.5 -80l-176 -203l221 -328q132 -193 224 -262q3 -3 1.5 -5.5 t-4.5 -2.5h-520q-4 1 -2 6l86 127v6l-176 264l-229 -264v-6l123 -127q6 -6 -2 -6h-365q-8 0 -2 6z" />
<glyph unicode="y" horiz-adv-x="1017" d="M-14 1008q-2 4 2 6h473q4 -1 2 -6l-80 -121v-6l197 -426q46 -98 57 -148q1 -3 4 2l236 572q2 6 0 8l-74 119q-2 4 2 6h244q4 -1 2 -6q-58 -51 -123 -203l-473 -1129q-40 -97 -95 -138q-50 -38 -124 -38h-15q-54 3 -101.5 37t-58.5 62q-4 4 0 8l213 250q7 3 7 -2v-205 q0 -21 9.5 -34t26.5 -13q2 2 8.5 0t19.5 8.5t22 32.5l114 280q9 23 9 48q0 17 -4 34q-9 45 -50 133l-313 649q-1 1 -14 27.5t-17 34.5t-16.5 32t-20.5 36.5t-20 31t-24 32.5t-25 26z" />
<glyph unicode="z" horiz-adv-x="954" d="M39 8q33 21 71 72t70 113l377 747q8 16 -10 16h-230q-41 0 -63.5 -16t-44.5 -53l-117 -201q-3 -6 -6.5 -6t-3.5 6v361q0 5 6 2q95 -35 236 -35h598q4 -1 2 -6q-67 -77 -109 -150l-395 -770q-8 -14 6 -14h115q45 0 78.5 6.5t59 22.5t39.5 29t38 38l166 180q4 4 7 2.5 t1 -6.5l-101 -340q-2 -6 -8 -6h-780q-10 0 -2 8z" />
<glyph unicode="{" horiz-adv-x="595" d="M72 600q0 6 6 8q82 29 115.5 71t29.5 122l-88 493q-13 85 39 138t137 53h238q6 0 6 -4v-58q0 -4 -6 -4h-74q-28 0 -40.5 -12.5t-12.5 -46.5v-526q0 -197 -94 -232q-5 -3 0 -8q50 -24 72 -80t22 -149v-529q0 -34 12.5 -46.5t40.5 -12.5h74q6 0 6 -4v-54q0 -4 -6 -4h-238 q-85 0 -137 52t-39 139l88 493q4 82 -30 125.5t-115 67.5q-6 2 -6 8z" />
<glyph unicode="|" horiz-adv-x="382" d="M147 -221v1644q0 7 7 7h75q7 0 7 -7v-1644q0 -6 -7 -6h-75q-7 0 -7 6z" />
<glyph unicode="}" horiz-adv-x="595" d="M41 -227q0 4 6 4h74q28 0 40.5 12.5t12.5 46.5v529q0 93 22 149t72 80q3 0 3 5q0 2 -3 3q-94 35 -94 232v526q0 34 -12.5 46.5t-40.5 12.5h-74q-6 0 -6 4v58q0 4 6 4h238q85 0 137 -53t39 -138l-88 -493q-4 -80 29.5 -122t115.5 -71q6 -2 6 -8t-6 -8q-81 -24 -115 -67.5 t-30 -125.5l88 -493q13 -87 -39 -139t-137 -52h-238q-6 0 -6 4v54z" />
<glyph unicode="~" horiz-adv-x="1105" d="M63 438q94 219 265 219q59 0 154.5 -38.5t185.5 -76.5t137 -38q59 0 103.5 27.5t82.5 89.5q2 4 6 4l43 -33l2 -4q-52 -113 -110.5 -165t-147.5 -52q-57 0 -127.5 24t-125 53.5t-117 53.5t-105.5 24q-68 0 -112.5 -29t-81.5 -89q-3 -5 -6 -5l-43 31z" />
<glyph unicode="&#xa1;" horiz-adv-x="589" d="M137 893q0 65 46.5 111.5t111.5 46.5t111.5 -46.5t46.5 -111.5t-46.5 -111.5t-111.5 -46.5t-111.5 46.5t-46.5 111.5zM141 -246l103 889q0 8 8 8h84q8 0 8 -8l102 -889q5 -68 -36.5 -119t-114.5 -51q-76 0 -117.5 50.5t-36.5 119.5z" />
<glyph unicode="&#xa2;" horiz-adv-x="1165" d="M80 498q0 144 66 265.5t191.5 199t287.5 86.5q4 0 4 4v174q0 6 6 6h76q6 0 6 -6v-174q0 -4 6 -4q170 -14 274 -104t127 -253q0 -8 -6 -8h-311q-10 0 -6 8l114 113q3 3 3 8q-13 68 -68.5 112t-126.5 50q-6 0 -6 -4v-930q0 -4 4 -4q88 9 157 81.5t95 182.5q0 3 2.5 5 t5.5 -1l147 -104q4 -4 0 -8q-98 -119 -194 -170.5t-213 -57.5q-4 0 -4 -4v-176q0 -6 -6 -6h-76q-6 0 -6 6v174q0 4 -6 4q-255 12 -399 157t-144 378zM375 516q0 -166 69.5 -298.5t180.5 -170.5q4 0 4 4v914q0 2 -6 2q-115 -30 -181.5 -148.5t-66.5 -302.5z" />
<glyph unicode="&#xa3;" horiz-adv-x="1099" d="M43 637v55q0 4 6 4h137q4 0 4 4v232q0 227 107.5 362.5t298.5 135.5q373 0 373 -433q0 -8 -6 -8h-365q-10 0 -6 8l119 113q2 2 2 8q0 131 -25.5 187.5t-93.5 56.5q-71 0 -95 -74q-20 -62 -20 -262v-55v-39v-232q0 -4 4 -4h312q6 0 6 -4v-55q0 -4 -6 -4h-289 q-11 0 -19 -6.5t-8 -16.5v-196q0 -123 -41 -200t-116 -132q-4 -3 -3.5 -5.5t5.5 -2.5h268q73 0 114 12t72 39l287 235q5 3 7 1.5t1 -5.5l-117 -350q-2 -6 -8 -6h-880q-10 0 -2 8q37 50 61 97t36.5 82t18.5 87.5t7 83.5t1 101v151q0 10 -7.5 16.5t-18.5 6.5h-115q-6 0 -6 4z " />
<glyph unicode="&#xa5;" horiz-adv-x="1290" d="M-8 1386q-3 3 0 6q0 1 2 1h532q5 -1 2 -7l-92 -120v-6l236 -429q56 -101 59 -147q0 -4 4 0l336 555q2 6 0 8l-92 139q-3 3 0 6q0 1 2 1h319q3 0 4 -2.5t-1 -4.5q-3 -2 -29 -25t-35 -31.5t-29 -28t-33 -36.5t-24 -36l-319 -527q-29 -48 -29 -102v-47q0 -4 4 -4h244 q6 0 6 -6v-66q0 -6 -6 -6h-244l-4 -4v-117q0 -4 4 -4h244q6 0 6 -6v-66q0 -6 -6 -6h-244l-4 -4v-92q0 -10 6 -16l111 -148q8 -8 -2 -8h-519q-10 0 -2 8l111 148q6 6 6 16v92q0 4 -4 4h-244q-6 0 -6 6v66q0 6 6 6h244l4 4v117q0 4 -4 4h-244q-6 0 -6 6v66q0 6 6 6h234 q4 0 4 4q0 19 -19 49l-333 563q-107 182 -162 221z" />
<glyph unicode="&#xa6;" horiz-adv-x="395" d="M154 6v604q0 6 6 6h76q6 0 6 -6v-604q0 -6 -6 -6h-76q-6 0 -6 6zM154 819v604q0 7 6 7h76q6 0 6 -7v-604q0 -6 -6 -6h-76q-6 0 -6 6z" />
<glyph unicode="&#xa7;" horiz-adv-x="1122" d="M88 631q9 110 84.5 182t185.5 92q6 0 2 4q-61 49 -100.5 117t-38.5 141q3 135 89 199t216 64q174 0 303 -115q3 -3 7 0l114 102q2 2 5 3t5.5 -0.5t2.5 -6.5v-418q0 -2 -2.5 -5t-6 -2t-6.5 7q-182 355 -360 355q-63 0 -99 -36.5t-36 -94.5q0 -43 26 -88.5t80 -79.5 l240 -148q104 -63 157.5 -155.5t53.5 -188.5q0 -211 -252 -295q-6 0 0 -6q183 -133 180 -278q-3 -126 -94.5 -195.5t-225.5 -69.5q-154 0 -290 115q-3 3 -6 0l-115 -102q-3 -4 -7.5 -3.5t-4.5 7.5v418q0 2 2 5t5.5 2t6.5 -7q35 -68 73 -125.5t85.5 -110.5t103 -84t111.5 -31 q59 0 89.5 30.5t30.5 84.5q0 30 -5 52t-29 53t-68 59l-319 205q-93 60 -147.5 149.5t-45.5 198.5zM328 707q0 -50 13 -94t31.5 -74t49 -59.5t54 -46.5t59.5 -40l143 -90q4 -2 12 -2q27 3 46 24t27.5 51.5t11.5 54t3 44.5q0 62 -16 110.5t-51 86.5t-70.5 64t-93.5 59l-105 59 q-4 2 -12 2q-42 0 -72 -42.5t-30 -106.5z" />
<glyph unicode="&#xa8;" horiz-adv-x="878" d="M111 1143q0 53 43 97t98 44t98 -44t43 -97q0 -56 -42 -99t-99 -43q-58 0 -99.5 43t-41.5 99zM485 1143q0 53 43.5 97t98.5 44t98 -44t43 -97q0 -56 -42 -99t-99 -43q-58 0 -100 43t-42 99z" />
<glyph unicode="&#xa9;" horiz-adv-x="1642" d="M92 694q0 150 57.5 286t154.5 234.5t232.5 157t284.5 58.5q150 0 285.5 -58.5t232.5 -157t154 -234.5t57 -286q0 -200 -96.5 -368t-264 -265.5t-368.5 -97.5q-200 0 -367.5 97.5t-264.5 265.5t-97 368zM193 692q0 -133 51 -253.5t136 -207t200.5 -137.5t240.5 -51 q168 0 314 86t233.5 236t87.5 327q0 134 -51.5 255.5t-137.5 208.5t-203 138.5t-243 51.5q-125 0 -241 -51.5t-201 -139t-135.5 -209t-50.5 -254.5zM365 698q0 141 61 257.5t175 185.5t259 69q154 0 258 -85t121 -234q0 -8 -6 -8h-287q-8 0 -4 8l74 98q2 2 2 8q0 64 -43 104 t-109 40q-213 0 -213 -443q0 -87 12 -162t37 -137.5t68.5 -98.5t101.5 -36q60 0 102 49t42 113q0 6 -2 8l-62 84q-4 8 4 8h287q6 0 6 -8q-15 -60 -44 -113.5t-75.5 -103t-118.5 -79t-161 -29.5q-229 0 -357 135t-128 370z" />
<glyph unicode="&#xab;" horiz-adv-x="876" d="M92 424v119q0 4 4 6l328 186q4 -3 4 -4v-94q0 -6 -4 -8l-238 -133q-4 -2 -4 -7v-16q0 -4 4 -6l238 -135q4 -2 4 -8v-95q0 -3 -0.5 -3.5t-2.5 -0.5h-1l-328 193q-4 2 -4 6zM428 424v119q0 4 4 6l328 186q4 -3 4 -4v-94q0 -6 -4 -8l-238 -133q-4 -2 -4 -7v-16q0 -4 4 -6 l238 -135q4 -2 4 -8v-95q0 -3 -0.5 -3.5t-2.5 -0.5h-1l-328 193q-4 2 -4 6z" />
<glyph unicode="&#xac;" horiz-adv-x="1288" d="M41 938v72q0 4 6 4h932q43 0 43 -43v-811q0 -6 -6 -6h-76q-6 0 -6 6v770q0 4 -4 4h-883q-6 0 -6 4z" />
<glyph unicode="&#xad;" horiz-adv-x="579" d="M51 477v72q0 4 6 4h445q6 0 6 -4v-72q0 -4 -6 -4h-445q-6 0 -6 4z" />
<glyph unicode="&#xae;" horiz-adv-x="1642" d="M92 694q0 150 57.5 286t154.5 234.5t232.5 157t284.5 58.5q150 0 285.5 -58.5t232.5 -157t154 -234.5t57 -286q0 -200 -96.5 -368t-264 -265.5t-368.5 -97.5q-200 0 -367.5 97.5t-264.5 265.5t-97 368zM193 692q0 -133 51 -253.5t136 -207t200.5 -137.5t240.5 -51 q168 0 314 86t233.5 236t87.5 327q0 134 -51.5 255.5t-137.5 208.5t-203 138.5t-243 51.5q-125 0 -241 -51.5t-201 -139t-135.5 -209t-50.5 -254.5zM414 256l65 90q6 6 6 14v678q0 3 -6 15l-63 116q-4 7 4 7h473q42 0 82.5 -7t81 -24.5t70.5 -44t48.5 -68.5t18.5 -94 q0 -88 -63 -141.5t-144 -67.5v-4q95 -18 152 -75.5t57 -143.5v-148q0 -3 6 -12l64 -88q5 -8 -2 -8h-301q-7 0 -7 8v227q0 120 -25.5 160.5t-111.5 40.5h-57q-24 0 -37.5 -14.5t-13.5 -40.5v-271q0 -10 4 -14l67 -90q5 -2 2 -5l-4 -1h-364q-4 1 -2 6zM711 805 q0 -26 13.5 -40.5t37.5 -14.5h57q68 0 98.5 42.5t30.5 139.5q0 99 -30.5 138.5t-108.5 39.5h-92q-6 0 -6 -8v-297z" />
<glyph unicode="&#xaf;" horiz-adv-x="907" d="M154 1214v72q0 4 6 4h588q6 0 6 -4v-72q0 -4 -6 -4h-588q-6 0 -6 4z" />
<glyph unicode="&#xb0;" horiz-adv-x="708" d="M102 1178q0 103 75.5 177.5t178.5 74.5t176.5 -74.5t73.5 -177.5q0 -105 -73.5 -178.5t-176.5 -73.5q-104 0 -179 73.5t-75 178.5zM184 1178q0 -68 51.5 -119t120.5 -51q67 0 117.5 51t50.5 119q0 69 -50 119.5t-118 50.5q-69 0 -120.5 -50.5t-51.5 -119.5z" />
<glyph unicode="&#xb1;" horiz-adv-x="997" d="M72 4v72q0 4 6 4h842q6 0 6 -4v-72q0 -4 -6 -4h-842q-6 0 -6 4zM72 567v72q0 4 6 4h373q4 0 4 4v361q0 6 6 6h76q6 0 6 -6v-361q0 -4 4 -4h373q6 0 6 -4v-72q0 -4 -6 -4h-373q-4 0 -4 -4v-360q0 -6 -6 -6h-76q-6 0 -6 6v360q0 4 -4 4h-373q-6 0 -6 4z" />
<glyph unicode="&#xb2;" horiz-adv-x="995" d="M150 1141q8 119 97 204t218 85q134 0 220.5 -63.5t86.5 -166.5q0 -70 -50.5 -145.5t-154.5 -167.5l-241 -213q0 -6 4 -6h176q47 0 78.5 10.5t70.5 38.5q30 22 71 57t67 60l26 24q4 4 5 -1q0 -2 -1 -3l-80 -254q-2 -6 -8 -6h-577q-6 0 -6 6l301 346q100 125 100 273 q0 55 -23.5 89.5t-66.5 34.5q-86 0 -86 -122q0 -46 22 -121q1 -3 1 -3.5t-5 -0.5l-239 37q-6 0 -6 8z" />
<glyph unicode="&#xb3;" horiz-adv-x="956" d="M154 801q0 6 4 6l161 47q3 0 3 -2q0 -78 40.5 -120t92.5 -42q53 0 90 41.5t37 99.5q0 86 -48 130.5t-133 44.5h-98q-2 0 -2 2v86q0 2 2 2h111q60 0 92.5 41t32.5 104q0 54 -28.5 81.5t-74.5 27.5q-42 0 -71 -41t-31 -101q0 -4 -4 -4l-164 31q-2 0 -2 6q23 87 106 138 t193 51q52 0 101.5 -9.5t95.5 -30t74 -58.5t28 -89q0 -64 -46 -115t-126 -69q-3 0 -3 -2t3 -2q98 0 155.5 -59t57.5 -146q0 -108 -97 -180t-233 -72q-51 0 -98.5 10t-93.5 32t-80 63t-47 98z" />
<glyph unicode="&#xb4;" horiz-adv-x="630" d="M145 1055l156 274q41 70 113 70q44 0 74 -29.5t30 -69.5q0 -86 -78 -129l-209 -116q-6 -4 -12 -4h-72z" />
<glyph unicode="&#xb5;" horiz-adv-x="1292" d="M55.5 -465.5q-0.5 1.5 0.5 3.5t3 3l109 105q4 2 4 8v1210q0 2 -4 6l-109 76q-10 5 0 8l373 113l6 -4v-838q0 -86 46.5 -137t131.5 -51q103 0 171.5 87.5t68.5 199.5v540q0 6 -4 8l-109 76q-10 5 0 8l373 109l6 -4v-639q0 -168 19 -223l65 -195q3 -10 -6 -4l-330 106 q-3 1 -6 -2q-48 -72 -114 -106.5t-170 -34.5q-72 0 -140 23q-2 0 -2 -2v-447q0 -4 -6 -4h-373q-3 0 -3.5 1.5z" />
<glyph unicode="&#xb6;" horiz-adv-x="1181" d="M51 1081q0 131 86 220.5t209 91.5h733q4 0 4.5 -3t-2.5 -6l-110 -147q-6 -6 -6 -16v-1049q0 -10 6 -16l110 -148q8 -8 -2 -8h-395q-10 0 -2 8l111 148q6 6 6 16v1096q0 29 -17 46t-45 17h-174q-28 0 -44.5 -17t-16.5 -46v-1096q0 -10 6 -16l110 -148q8 -8 -2 -8h-395 q-10 0 -2 8l111 148q6 6 6 16v614q0 7 -4 7q-120 6 -200.5 80.5t-80.5 207.5z" />
<glyph unicode="&#xb7;" horiz-adv-x="622" d="M154 510q0 65 46.5 111.5t110.5 46.5q65 0 111.5 -47t46.5 -111t-46.5 -111t-111.5 -47q-64 0 -110.5 46.5t-46.5 111.5z" />
<glyph unicode="&#xb8;" horiz-adv-x="1705" d="M532 -412l31 70q0 5 6 2q73 -29 136 -29q50 0 78 19.5t28 70.5q0 34 -21.5 53t-54.5 19q-37 0 -69 -12h-9l-32 10l-2 6l69 164q3 6 -4 6h105q-5 0 -5 -6l-36 -90q-2 -4 2 -4q27 6 51 6q74 0 126 -38.5t52 -113.5q0 -48 -21 -85t-55 -57t-71.5 -30t-75.5 -10 q-137 0 -225 43q-3 2 -3 6z" />
<glyph unicode="&#xb9;" horiz-adv-x="786" d="M155.5 617q-0.5 3 2.5 6l112 75q6 6 6 17v547q0 6 -4 8h-112q-10 5 0 8l346 152q6 2 6 -5v-710q0 -11 6 -17l111 -75q2 -2 2.5 -4t-0.5 -3.5t-4 -1.5h-467q-4 0 -4.5 3z" />
<glyph unicode="&#xbb;" horiz-adv-x="876" d="M113 229v95q0 6 4 8l237 135q4 2 4 6v16q0 5 -4 7l-237 133q-4 2 -4 8v94q0 3 0.5 3.5t2.5 0.5h1l327 -186q5 -3 5 -6v-119q0 -4 -5 -6l-327 -193q-4 3 -4 4zM449 229v95q0 6 4 8l237 135q4 2 4 6v16q0 5 -4 7l-237 133q-4 2 -4 8v94q0 3 0.5 3.5t2.5 0.5h1l327 -186 q4 -2 4 -6v-119q0 -4 -4 -6l-327 -193q-4 3 -4 4z" />
<glyph unicode="&#xbc;" horiz-adv-x="1658" d="M155.5 617q-0.5 3 2.5 6l112 75q6 6 6 17v547q0 6 -4 8h-112q-10 5 0 8l346 152q6 2 6 -5v-710q0 -11 6 -17l111 -75q2 -2 2.5 -4t-0.5 -3.5t-4 -1.5h-467q-4 0 -4.5 3zM274 6q-4 -6 5 -6h94q8 0 8 6q884 1140 1075 1380q5 7 -4 7h-94q-8 0 -8 -7q-170 -227 -523.5 -681 t-552.5 -699zM893 217v62l4 14l326 495q3 5 12 5h231q7 0 7 -7v-505h24q20 0 33 10l69 55q9 6 9 -2v-190q0 -8 -9 -2l-69 51q-17 10 -33 10h-24v-111q0 -8 4 -16l45 -78q4 -8 -2 -8h-326q-5 0 -2 8l41 78q4 6 4 16v111h-340q-4 0 -4 4zM969 287q-3 -6 2 -6h266v407z" />
<glyph unicode="&#xbd;" horiz-adv-x="1783" d="M155.5 617q-0.5 3 2.5 6l112 75q6 6 6 17v547q0 6 -4 8h-112q-10 5 0 8l346 152q6 2 6 -5v-710q0 -11 6 -17l111 -75q2 -2 2.5 -4t-0.5 -3.5t-4 -1.5h-467q-4 0 -4.5 3zM274 6q-4 -6 5 -6h94q8 0 8 6q884 1140 1075 1380q5 7 -4 7h-94q-8 0 -8 -7q-170 -227 -523.5 -681 t-552.5 -699zM1044 547q8 119 97.5 204t218.5 85q134 0 220.5 -63.5t86.5 -166.5q0 -70 -50.5 -145.5t-154.5 -167.5l-241 -213q0 -6 4 -6h176q47 0 78.5 10.5t70.5 38.5q30 22 71 57t67 60l26 24q4 4 4 -1q1 -2 0 -3l-80 -254q-2 -6 -8 -6h-577q-6 0 -6 6l301 346 q100 125 100 273q0 55 -23.5 90t-66.5 35t-64.5 -33t-21.5 -90q0 -46 22 -121q2 -3 1 -3.5t-5 -0.5l-239 37q-7 0 -7 8z" />
<glyph unicode="&#xbe;" horiz-adv-x="1755" d="M154 801q0 6 4 6l161 47q3 0 3 -2q0 -78 40.5 -120t92.5 -42q53 0 90 41.5t37 99.5q0 86 -48 130.5t-133 44.5h-98q-2 0 -2 2v86q0 2 2 2h111q60 0 92.5 41t32.5 104q0 54 -28.5 81.5t-74.5 27.5q-42 0 -71 -41t-31 -101q0 -4 -4 -4l-164 31q-2 0 -2 6q23 87 106 138 t193 51q52 0 101.5 -9.5t95.5 -30t74 -58.5t28 -89q0 -64 -46 -115t-126 -69q-3 0 -3 -2t3 -2q98 0 155.5 -59t57.5 -146q0 -108 -97 -180t-233 -72q-51 0 -98.5 10t-93.5 32t-80 63t-47 98zM371 6q-4 -6 4 -6h94q8 0 8 6q884 1140 1075 1380q5 7 -4 7h-94q-8 0 -8 -7 q-172 -230 -525 -683.5t-550 -696.5zM989 217v62l4 14l326 495q3 5 12 5h232q6 0 6 -7v-505h24q20 0 33 10l70 55q8 5 8 -2v-190q0 -7 -8 -2l-70 51q-17 10 -33 10h-24v-111q0 -8 4 -16l45 -78q4 -8 -2 -8h-326q-5 0 -2 8l41 78q4 6 4 16v111h-340q-4 0 -4 4zM1065 287 q-3 -6 2 -6h266v407z" />
<glyph unicode="&#xbf;" horiz-adv-x="1017" d="M55 -76q0 128 84.5 242t263.5 242q48 34 69 56t24.5 33t7.5 42l8 94q0 4 4 4h72q6 0 6 -4l22 -240q2 -19 -2.5 -26.5t-25.5 -26.5l-137 -125q-62 -55 -87.5 -118.5t-25.5 -182.5q0 -39 10.5 -80.5t31.5 -80.5t58.5 -64t85.5 -25q81 0 131 70t50 164q0 7 -5 12l-110 119 q-4 8 6 8h377q6 0 6 -8q0 -87 -29.5 -166t-85.5 -142t-146 -100t-202 -37q-130 0 -232.5 37t-165.5 115t-63 188zM389 893q0 65 46.5 111.5t111.5 46.5t111.5 -46.5t46.5 -111.5t-46.5 -111.5t-111.5 -46.5t-111.5 46.5t-46.5 111.5z" />
<glyph unicode="&#xc0;" horiz-adv-x="1492" d="M-4 7q1 3 4 5l39 29q83 62 119 149l399 1016q3 5 0 8l-154 56q-3 1 -2 6t5 6l374 164q11 0 13 -6q40 -146 86 -252l403 -926q43 -98 86 -145t131 -107q4 -3 3.5 -6.5t-5.5 -3.5h-553q-9 0 -4 10l76 131q4 8 2 13l-135 317q-6 14 -11.5 22t-19.5 14.5t-35 6.5h-432 q-9 0 -12 -10l-135 -348q-5 -10 2 -17l127 -129q2 -2 2.5 -4.5t-0.5 -4t-4 -1.5h-363q-4 0 -5.5 2t-0.5 5zM350 1761q0 39 30 69t75 30q71 0 112 -70l156 -274q4 -5 -2 -5h-72q-5 0 -12 5l-209 116q-78 43 -78 129zM410 596q-4 -8 4 -8h381q18 0 23.5 11t-1.5 26l-207 489z " />
<glyph unicode="&#xc1;" horiz-adv-x="1492" d="M-4 7q1 3 4 5l39 29q83 62 119 149l399 1016q3 5 0 8l-154 56q-3 1 -2 6t5 6l374 164q11 0 13 -6q40 -146 86 -252l403 -926q43 -98 86 -145t131 -107q4 -3 3.5 -6.5t-5.5 -3.5h-553q-9 0 -4 10l76 131q4 8 2 13l-135 317q-6 14 -11.5 22t-19.5 14.5t-35 6.5h-432 q-9 0 -12 -10l-135 -348q-5 -10 2 -17l127 -129q2 -2 2.5 -4.5t-0.5 -4t-4 -1.5h-363q-4 0 -5.5 2t-0.5 5zM410 596q-4 -8 4 -8h381q18 0 23.5 11t-1.5 26l-207 489zM541 1516l155 274q41 70 113 70q45 0 74.5 -30t29.5 -69q0 -87 -77 -129l-209 -116q-7 -5 -13 -5h-71z" />
<glyph unicode="&#xc2;" horiz-adv-x="1492" d="M-4 7q1 3 4 5l39 29q83 62 119 149l399 1016q3 5 0 8l-154 56q-3 1 -2 6t5 6l374 164q11 0 13 -6q40 -146 86 -252l403 -926q43 -98 86 -145t131 -107q4 -3 3.5 -6.5t-5.5 -3.5h-553q-9 0 -4 10l76 131q4 8 2 13l-135 317q-6 14 -11.5 22t-19.5 14.5t-35 6.5h-432 q-9 0 -12 -10l-135 -348q-5 -10 2 -17l127 -129q2 -2 2.5 -4.5t-0.5 -4t-4 -1.5h-363q-4 0 -5.5 2t-0.5 5zM332 1511l233 334q4 4 10 4h146q6 0 10 -4l230 -334q1 -4 -3 -4h-67q-6 0 -10 4l-232 172q-3 3 -8 0l-229 -172q-4 -4 -11 -4h-67zM410 596q-4 -8 4 -8h381 q18 0 23.5 11t-1.5 26l-207 489z" />
<glyph unicode="&#xc3;" horiz-adv-x="1492" d="M-4 7q1 3 4 5l39 29q83 62 119 149l399 1016q3 5 0 8l-154 56q-3 1 -2 6t5 6l374 164q11 0 13 -6q40 -146 86 -252l403 -926q43 -98 86 -145t131 -107q4 -3 3.5 -6.5t-5.5 -3.5h-553q-9 0 -4 10l76 131q4 8 2 13l-135 317q-6 14 -11.5 22t-19.5 14.5t-35 6.5h-432 q-9 0 -12 -10l-135 -348q-5 -10 2 -17l127 -129q2 -2 2.5 -4.5t-0.5 -4t-4 -1.5h-363q-4 0 -5.5 2t-0.5 5zM307 1556q27 126 81.5 199.5t154.5 73.5q49 0 91 -21.5t67.5 -47t63 -47t77.5 -21.5q17 0 31 5.5t22 11.5t16 21t10.5 23t9.5 29.5t9 29.5q2 7 6 7h66l2 -7 q-12 -59 -28 -103.5t-41.5 -85.5t-65.5 -63t-91 -22q-45 0 -84.5 14.5t-66.5 35t-51 40.5t-49 34.5t-50 14.5t-43 -9t-30 -29t-18 -36.5t-15 -46.5q-2 -6 -8 -6h-64zM410 596q-4 -8 4 -8h381q18 0 23.5 11t-1.5 26l-207 489z" />
<glyph unicode="&#xc4;" horiz-adv-x="1492" d="M-4 7q1 3 4 5l39 29q83 62 119 149l399 1016q3 5 0 8l-154 56q-3 1 -2 6t5 6l374 164q11 0 13 -6q40 -146 86 -252l403 -926q43 -98 86 -145t131 -107q4 -3 3.5 -6.5t-5.5 -3.5h-553q-9 0 -4 10l76 131q4 8 2 13l-135 317q-6 14 -11.5 22t-19.5 14.5t-35 6.5h-432 q-9 0 -12 -10l-135 -348q-5 -10 2 -17l127 -129q2 -2 2.5 -4.5t-0.5 -4t-4 -1.5h-363q-4 0 -5.5 2t-0.5 5zM350 1681q0 53 43.5 97.5t98.5 44.5t98 -44.5t43 -97.5q0 -56 -42 -98.5t-99 -42.5q-58 0 -100 42.5t-42 98.5zM410 596q-4 -8 4 -8h381q18 0 23.5 11t-1.5 26 l-207 489zM725 1681q0 53 43 97.5t98 44.5t98.5 -44.5t43.5 -97.5q0 -56 -42.5 -98.5t-99.5 -42.5q-58 0 -99.5 42.5t-41.5 98.5z" />
<glyph unicode="&#xc5;" horiz-adv-x="1492" d="M-4 7q1 3 4 5l39 29q83 62 119 149l399 1016q3 5 0 8l-154 56q-3 1 -2 6t5 6l374 164q11 0 13 -6q40 -146 86 -252l403 -926q43 -98 86 -145t131 -107q4 -3 3.5 -6.5t-5.5 -3.5h-553q-9 0 -4 10l76 131q4 8 2 13l-135 317q-6 14 -11.5 22t-19.5 14.5t-35 6.5h-432 q-9 0 -12 -10l-135 -348q-5 -10 2 -17l127 -129q2 -2 2.5 -4.5t-0.5 -4t-4 -1.5h-363q-4 0 -5.5 2t-0.5 5zM410 596q-4 -8 4 -8h381q18 0 23.5 11t-1.5 26l-207 489zM461 1681q0 83 60 143t143 60t141.5 -59.5t58.5 -143.5q0 -83 -58.5 -141.5t-141.5 -58.5 q-84 0 -143.5 58.5t-59.5 141.5zM559 1681q0 -41 31 -71.5t74 -30.5q41 0 71.5 30.5t30.5 71.5q0 43 -30.5 74t-71.5 31q-43 0 -74 -31t-31 -74z" />
<glyph unicode="&#xc6;" horiz-adv-x="2185" d="M-19.5 4q0.5 2 3.5 4l36 25q67 44 134 113t114 133l680 970q8 11 -4 17l-160 118q-2 2 -2.5 4t0.5 3.5t4 1.5h1016h20.5h22t22 0.5t24 1t23 1.5t25 2.5t24.5 3.5t26.5 5t25.5 7t27 9q6 3 6 -2v-383q0 -6 -3.5 -6t-6.5 6l-127 215q-22 40 -49.5 53t-79.5 13h-414 q-12 0 -20.5 -9t-8.5 -22v-459q0 -57 62 -57h258q42 0 65 8t48 35l116 125q3 4 5.5 3t2.5 -5v-426q0 -12 -10 -2l-121 149q-31 39 -106 39h-258q-62 0 -62 -57v-545q0 -22 19 -22h328q79 0 136 20t124 74l202 164q5 3 7.5 1.5t1.5 -5.5l-113 -322q-2 -6 -8 -6h-1096 q-10 0 -2 8l111 180q6 6 6 17v272q-1 11 -2.5 17t-6 13t-14.5 10t-26 3h-463q-9 0 -17 -10l-213 -305q-9 -12 -2 -23l125 -172q3 -3 1 -6.5t-7 -3.5h-442q-4 0 -6 1t-1.5 3zM590 594h416h7.5h7.5t6.5 0.5t6.5 1t6 2t5.5 3.5t3.5 5t3 6.5t2 9t1 11.5v610q0 5 -4.5 8t-10.5 -2 l-450 -647q-4 -8 0 -8z" />
<glyph unicode="&#xc7;" horiz-adv-x="1568" d="M106 692q0 152 54.5 287t152.5 235t243 158t316 58q123 0 222.5 -32.5t212.5 -113.5q5 -5 10 0l119 105q14 9 14 -5v-559q0 -2 -1.5 -5t-4.5 -2t-6 7q-39 106 -90.5 196t-116.5 166t-147 119.5t-171 43.5q-149 0 -263.5 -87.5t-173 -237t-54.5 -333.5q5 -186 64 -333.5 t170 -234.5t257 -87q66 0 126 19.5t109 56t90.5 79.5t79 101t64.5 108.5t56 112.5q2 4 4.5 4.5t4 -1t1.5 -3.5v-506q0 -11 -10 -4l-113 88q-6 4 -12 0q-80 -53 -188 -85.5t-193 -39.5q-3 0 -6 -6l-37 -90q-2 -4 2 -4q27 6 51 6q74 0 126 -38.5t52 -113.5q0 -48 -21 -85 t-55 -57t-71.5 -30t-75.5 -10q-137 0 -225 43q-2 1 -2 6l30 70q0 6 7 2q73 -29 135 -29q50 0 78 19.5t28 70.5q0 34 -21.5 53t-54.5 19q-37 0 -69 -12h-8l-33 10l-2 6l69 164q3 6 -4 6q-335 29 -527 224t-192 501z" />
<glyph unicode="&#xc8;" horiz-adv-x="1345" d="M97.5 1388q-0.5 2 0.5 3.5t4 1.5h861h20.5h22t21.5 0.5t23.5 1t23 1.5t25.5 2.5t24.5 3.5t26 5t25.5 7t27 9q6 3 6 -2v-383q0 -6 -3.5 -6t-6.5 6l-127 215q-7 12 -13 21.5t-13 16.5t-11.5 12t-12.5 8t-11.5 5t-14.5 2.5t-15 0.5h-18h-20h-410q-12 0 -20 -9t-8 -22v-452 q0 -29 16.5 -46.5t44.5 -17.5h254q42 0 65 8t48 35l115 123q5 4 7.5 3t2.5 -5v-424q0 -4 -1.5 -5.5t-4 -0.5t-4.5 4l-121 149q-31 39 -107 39h-254q-28 0 -44.5 -17t-16.5 -46v-539q0 -22 18 -22h324q141 0 211 55l252 203q5 3 7 1.5t1 -5.5l-113 -322q-2 -6 -8 -6h-1094 q-10 0 -2 8l111 148q6 6 6 16v1049q0 10 -6 16l-111 147q-2 2 -2.5 4zM426 1761q0 39 30 69t74 30q72 0 113 -70l156 -274q4 -5 -2 -5h-72q-5 0 -12 5l-209 116q-78 43 -78 129z" />
<glyph unicode="&#xc9;" horiz-adv-x="1345" d="M97.5 1388q-0.5 2 0.5 3.5t4 1.5h861h20.5h22t21.5 0.5t23.5 1t23 1.5t25.5 2.5t24.5 3.5t26 5t25.5 7t27 9q6 3 6 -2v-383q0 -6 -3.5 -6t-6.5 6l-127 215q-7 12 -13 21.5t-13 16.5t-11.5 12t-12.5 8t-11.5 5t-14.5 2.5t-15 0.5h-18h-20h-410q-12 0 -20 -9t-8 -22v-452 q0 -29 16.5 -46.5t44.5 -17.5h254q42 0 65 8t48 35l115 123q5 4 7.5 3t2.5 -5v-424q0 -4 -1.5 -5.5t-4 -0.5t-4.5 4l-121 149q-31 39 -107 39h-254q-28 0 -44.5 -17t-16.5 -46v-539q0 -22 18 -22h324q141 0 211 55l252 203q5 3 7 1.5t1 -5.5l-113 -322q-2 -6 -8 -6h-1094 q-10 0 -2 8l111 148q6 6 6 16v1049q0 10 -6 16l-111 147q-2 2 -2.5 4zM537 1511l155 275q40 69 113 69q45 0 74.5 -29.5t29.5 -68.5q0 -86 -78 -129l-208 -117q-6 -4 -13 -4h-71z" />
<glyph unicode="&#xca;" horiz-adv-x="1345" d="M97.5 1388q-0.5 2 0.5 3.5t4 1.5h861h20.5h22t21.5 0.5t23.5 1t23 1.5t25.5 2.5t24.5 3.5t26 5t25.5 7t27 9q6 3 6 -2v-383q0 -6 -3.5 -6t-6.5 6l-127 215q-7 12 -13 21.5t-13 16.5t-11.5 12t-12.5 8t-11.5 5t-14.5 2.5t-15 0.5h-18h-20h-410q-12 0 -20 -9t-8 -22v-452 q0 -29 16.5 -46.5t44.5 -17.5h254q42 0 65 8t48 35l115 123q5 4 7.5 3t2.5 -5v-424q0 -4 -1.5 -5.5t-4 -0.5t-4.5 4l-121 149q-31 39 -107 39h-254q-28 0 -44.5 -17t-16.5 -46v-539q0 -22 18 -22h324q141 0 211 55l252 203q5 3 7 1.5t1 -5.5l-113 -322q-2 -6 -8 -6h-1094 q-10 0 -2 8l111 148q6 6 6 16v1049q0 10 -6 16l-111 147q-2 2 -2.5 4zM352 1516l234 333q4 4 10 4h145q7 0 11 -4l229 -333q2 -5 -2 -5h-68q-5 0 -10 5l-231 172q-3 3 -8 0l-230 -172q-5 -5 -10 -5h-68z" />
<glyph unicode="&#xcb;" horiz-adv-x="1345" d="M97.5 1388q-0.5 2 0.5 3.5t4 1.5h861h20.5h22t21.5 0.5t23.5 1t23 1.5t25.5 2.5t24.5 3.5t26 5t25.5 7t27 9q6 3 6 -2v-383q0 -6 -3.5 -6t-6.5 6l-127 215q-7 12 -13 21.5t-13 16.5t-11.5 12t-12.5 8t-11.5 5t-14.5 2.5t-15 0.5h-18h-20h-410q-12 0 -20 -9t-8 -22v-452 q0 -29 16.5 -46.5t44.5 -17.5h254q42 0 65 8t48 35l115 123q5 4 7.5 3t2.5 -5v-424q0 -4 -1.5 -5.5t-4 -0.5t-4.5 4l-121 149q-31 39 -107 39h-254q-28 0 -44.5 -17t-16.5 -46v-539q0 -22 18 -22h324q141 0 211 55l252 203q5 3 7 1.5t1 -5.5l-113 -322q-2 -6 -8 -6h-1094 q-10 0 -2 8l111 148q6 6 6 16v1049q0 10 -6 16l-111 147q-2 2 -2.5 4zM344 1683q0 53 43 97.5t98 44.5t98.5 -44.5t43.5 -97.5q0 -56 -42.5 -98.5t-99.5 -42.5q-58 0 -99.5 42.5t-41.5 98.5zM719 1683q0 53 43 97.5t98 44.5t98 -44.5t43 -97.5q0 -56 -42 -98.5t-99 -42.5 q-58 0 -99.5 42.5t-41.5 98.5z" />
<glyph unicode="&#xcc;" horiz-adv-x="722" d="M97.5 1388q-0.5 2 0.5 3.5t4 1.5h519q4 0 4.5 -3t-2.5 -6l-111 -147q-6 -6 -6 -16v-1049q0 -10 6 -16l111 -148q8 -8 -2 -8h-519q-10 0 -2 8l111 148q6 6 6 16v1049q0 10 -6 16l-111 147q-2 2 -2.5 4zM109 1761q0 39 29.5 69t74.5 30q72 0 113 -70l155 -274q4 -5 -2 -5 h-71q-6 0 -13 5l-209 116q-77 42 -77 129z" />
<glyph unicode="&#xcd;" horiz-adv-x="722" d="M97.5 1388q-0.5 2 0.5 3.5t4 1.5h519q4 0 4.5 -3t-2.5 -6l-111 -147q-6 -6 -6 -16v-1049q0 -10 6 -16l111 -148q8 -8 -2 -8h-519q-10 0 -2 8l111 148q6 6 6 16v1049q0 10 -6 16l-111 147q-2 2 -2.5 4zM283 1516l155 274q41 70 113 70q45 0 74.5 -30t29.5 -69 q0 -87 -77 -129l-209 -116q-7 -5 -13 -5h-71z" />
<glyph unicode="&#xce;" horiz-adv-x="722" d="M51 1518l234 333q4 4 10 4h145q7 0 11 -4l229 -333q2 -5 -2 -5h-68q-5 0 -10 5l-231 172q-3 3 -9 0l-229 -172q-5 -5 -10 -5h-68zM97.5 1388q-0.5 2 0.5 3.5t4 1.5h519q4 0 4.5 -3t-2.5 -6l-111 -147q-6 -6 -6 -16v-1049q0 -10 6 -16l111 -148q8 -8 -2 -8h-519 q-10 0 -2 8l111 148q6 6 6 16v1049q0 10 -6 16l-111 147q-2 2 -2.5 4z" />
<glyph unicode="&#xcf;" horiz-adv-x="722" d="M39 1683q0 53 43 97.5t98 44.5t98.5 -44.5t43.5 -97.5q0 -56 -42.5 -98.5t-99.5 -42.5q-58 0 -99.5 42.5t-41.5 98.5zM97.5 1388q-0.5 2 0.5 3.5t4 1.5h519q4 0 4.5 -3t-2.5 -6l-111 -147q-6 -6 -6 -16v-1049q0 -10 6 -16l111 -148q8 -8 -2 -8h-519q-10 0 -2 8l111 148 q6 6 6 16v1049q0 10 -6 16l-111 147q-2 2 -2.5 4zM414 1683q0 53 43 97.5t98 44.5t98 -44.5t43 -97.5q0 -56 -42 -98.5t-99 -42.5q-58 0 -99.5 42.5t-41.5 98.5z" />
<glyph unicode="&#xd0;" horiz-adv-x="1622" d="M51 676v72q0 4 6 4h156q4 0 4 4v465q0 10 -6 16l-111 147q-2 2 -2.5 4t0.5 3.5t4 1.5h576q844 0 844 -701q0 -126 -29 -230.5t-92 -191t-158 -146t-232 -92t-309 -32.5h-600q-10 0 -2 8l111 148q6 6 6 16v496q0 4 -4 4h-156q-6 0 -6 4zM504 104q0 -13 8 -21.5t20 -8.5 h150q265 0 402 156.5t137 459.5q0 166 -39 288.5t-113 196.5t-173 109t-226 35h-138q-12 0 -20 -9t-8 -22v-532q0 -4 4 -4h270q6 0 6 -4v-72q0 -4 -6 -4h-270q-4 0 -4 -4v-564z" />
<glyph unicode="&#xd1;" horiz-adv-x="1507" d="M100 1386l138 -114q3 -3 4.5 -7t1.5 -7v-3v-1083q0 -10 -6 -16l-105 -148q-8 -8 2 -8h297q10 0 2 8l-104 148q-6 6 -6 16v963l4 2l592 -893q86 -131 104 -238q0 -6 6 -6h371q3 0 4 2.5t-2 5.5l-49 74q-6 9 -6 24v1127q0 10 6 16l104 148q8 8 -2 8h-297q-10 0 -2 -8 l105 -148q6 -6 6 -16v-1016q0 -6 -4 -2l-625 959q-52 76 -72.5 119t-34.5 93q-4 7 -8 7h-422q-9 0 -2 -7zM483 1554q27 126 81.5 199.5t154.5 73.5q49 0 91 -21.5t67.5 -47t63 -47t77.5 -21.5q17 0 31 5.5t22 11.5t16 21t10.5 23t9.5 29.5t9 29.5q2 7 6 7h66l2 -7 q-12 -59 -28 -103.5t-41.5 -85.5t-65 -63t-90.5 -22q-45 0 -84.5 14.5t-66.5 35t-51 40.5t-49 34.5t-50 14.5q-47 0 -68.5 -30.5t-38.5 -90.5q-2 -6 -8 -6h-64z" />
<glyph unicode="&#xd2;" d="M100 692q0 200 105.5 370.5t281.5 269t377 98.5q151 0 291 -57.5t244 -155.5t166.5 -235.5t62.5 -289.5q0 -158 -63 -295.5t-168.5 -231.5t-244 -148t-288.5 -54t-288.5 54t-244 148t-168.5 231.5t-63 295.5zM408 692q0 -185 56.5 -333t166.5 -235t256 -87 q109 0 193.5 50t136.5 139.5t78 207t26 258.5q0 186 -55.5 334t-166.5 236t-259 88q-111 0 -195.5 -49.5t-135.5 -139.5t-76 -207.5t-25 -261.5zM510 1757q0 39 29.5 68.5t74.5 29.5q73 0 113 -69l156 -275q4 -4 -2 -4h-72q-6 0 -12 4l-209 117q-78 43 -78 129z" />
<glyph unicode="&#xd3;" d="M100 692q0 200 105.5 370.5t281.5 269t377 98.5q151 0 291 -57.5t244 -155.5t166.5 -235.5t62.5 -289.5q0 -158 -63 -295.5t-168.5 -231.5t-244 -148t-288.5 -54t-288.5 54t-244 148t-168.5 231.5t-63 295.5zM408 692q0 -185 56.5 -333t166.5 -235t256 -87 q109 0 193.5 50t136.5 139.5t78 207t26 258.5q0 186 -55.5 334t-166.5 236t-259 88q-111 0 -195.5 -49.5t-135.5 -139.5t-76 -207.5t-25 -261.5zM840 1511l155 275q40 69 113 69q45 0 74.5 -29.5t29.5 -68.5q0 -87 -77 -129l-209 -117q-6 -4 -13 -4h-71z" />
<glyph unicode="&#xd4;" d="M100 692q0 200 105.5 370.5t281.5 269t377 98.5q151 0 291 -57.5t244 -155.5t166.5 -235.5t62.5 -289.5q0 -158 -63 -295.5t-168.5 -231.5t-244 -148t-288.5 -54t-288.5 54t-244 148t-168.5 231.5t-63 295.5zM408 692q0 -185 56.5 -333t166.5 -235t256 -87 q109 0 193.5 50t136.5 139.5t78 207t26 258.5q0 186 -55.5 334t-166.5 236t-259 88q-111 0 -195.5 -49.5t-135.5 -139.5t-76 -207.5t-25 -261.5zM528 1516l234 333q4 4 10 4h146q6 0 10 -4l229 -333q2 -5 -2 -5h-68q-5 0 -10 5l-231 172q-3 3 -8 0l-230 -172q-5 -5 -10 -5 h-68z" />
<glyph unicode="&#xd5;" d="M100 692q0 200 105.5 370.5t281.5 269t377 98.5q151 0 291 -57.5t244 -155.5t166.5 -235.5t62.5 -289.5q0 -158 -63 -295.5t-168.5 -231.5t-244 -148t-288.5 -54t-288.5 54t-244 148t-168.5 231.5t-63 295.5zM408 692q0 -185 56.5 -333t166.5 -235t256 -87 q109 0 193.5 50t136.5 139.5t78 207t26 258.5q0 186 -55.5 334t-166.5 236t-259 88q-111 0 -195.5 -49.5t-135.5 -139.5t-76 -207.5t-25 -261.5zM485 1559q27 126 81.5 199t154.5 73q49 0 91 -21.5t67.5 -47t63 -47t77.5 -21.5q17 0 31 5.5t22 11.5t16 21.5t11 23.5t9 29.5 t9 29.5q2 6 6 6h66l2 -6q-12 -59 -28 -103.5t-41.5 -86t-65 -63.5t-90.5 -22q-45 0 -84.5 14.5t-66.5 35t-51 40.5t-49 34.5t-50 14.5q-47 0 -68.5 -30t-38.5 -90q-2 -7 -8 -7h-64z" />
<glyph unicode="&#xd6;" d="M100 692q0 200 105.5 370.5t281.5 269t377 98.5q151 0 291 -57.5t244 -155.5t166.5 -235.5t62.5 -289.5q0 -158 -63 -295.5t-168.5 -231.5t-244 -148t-288.5 -54t-288.5 54t-244 148t-168.5 231.5t-63 295.5zM408 692q0 -185 56.5 -333t166.5 -235t256 -87 q109 0 193.5 50t136.5 139.5t78 207t26 258.5q0 186 -55.5 334t-166.5 236t-259 88q-111 0 -195.5 -49.5t-135.5 -139.5t-76 -207.5t-25 -261.5zM518 1681q0 53 43 97.5t98 44.5t98.5 -44.5t43.5 -97.5q0 -56 -42.5 -98.5t-99.5 -42.5q-58 0 -99.5 42.5t-41.5 98.5z M893 1681q0 53 43 97.5t98 44.5t98.5 -44.5t43.5 -97.5q0 -56 -42.5 -98.5t-99.5 -42.5q-58 0 -99.5 42.5t-41.5 98.5z" />
<glyph unicode="&#xd7;" horiz-adv-x="913" d="M90 197q-4 4 0 8l303 305q3 3 0 10l-303 305q-4 5 0 9l49 49q4 4 8 0l306 -305q3 -3 6 0l309 305q4 4 8 0l49 -49q3 -4 0 -7l-305 -307q-5 -5 0 -10l305 -305q4 -4 0 -8l-49 -50q-4 -4 -8 0l-303 304q-6 6 -12 0l-306 -304q-4 -4 -8 0z" />
<glyph unicode="&#xd8;" d="M100 692q0 200 105.5 370.5t281.5 269t377 98.5q315 0 469 -154q1 -2 3.5 -2t2.5 2l136 147q7 7 8 7h69q9 0 4 -7l-167 -184q-3 -3 0 -6q109 -109 174 -253t65 -288q0 -158 -63 -295.5t-168.5 -231.5t-244 -148t-288.5 -54q-272 0 -485 164q-5 5 -10 0l-146 -158 q-6 -6 -10 -6h-74q-8 0 -2 6l182 199q3 5 -2 10q-217 214 -217 514zM408 692q0 -202 61 -348q5 -5 8 -2l733 793q4 4 2 6q-56 89 -157 149t-215 60q-111 0 -195.5 -49.5t-135.5 -139.5t-76 -207.5t-25 -261.5zM508 266q63 -108 160 -168.5t219 -60.5q109 0 193.5 50 t136.5 139.5t78 207t26 258.5q0 90 -3 140.5t-20 119.5t-51 129q-2 2 -4 0l-735 -802q-4 -9 0 -13z" />
<glyph unicode="&#xd9;" horiz-adv-x="1566" d="M93.5 1388q-0.5 2 0.5 3.5t4 1.5h516q4 0 4.5 -3t-2.5 -6l-110 -147q-6 -6 -6 -16v-742q0 -191 100.5 -298t280.5 -107q84 0 157.5 27t131 79.5t91 137t33.5 190.5v713q0 10 -6 16l-110 147q-2 2 -2.5 4t0.5 3.5t4 1.5h309q4 0 4.5 -3t-2.5 -6l-111 -147q-6 -6 -6 -16 v-672q0 -274 -145 -430t-398 -156q-135 0 -244.5 32.5t-194.5 100.5t-132 182.5t-47 268.5v674q0 10 -6 16l-111 147q-2 2 -2.5 4zM711 1757q0 39 29.5 68.5t74.5 29.5q73 0 113 -69l155 -275q4 -4 -2 -4h-71q-7 0 -13 4l-209 117q-77 42 -77 129z" />
<glyph unicode="&#xda;" horiz-adv-x="1566" d="M93.5 1388q-0.5 2 0.5 3.5t4 1.5h516q4 0 4.5 -3t-2.5 -6l-110 -147q-6 -6 -6 -16v-742q0 -191 100.5 -298t280.5 -107q84 0 157.5 27t131 79.5t91 137t33.5 190.5v713q0 10 -6 16l-110 147q-2 2 -2.5 4t0.5 3.5t4 1.5h309q4 0 4.5 -3t-2.5 -6l-111 -147q-6 -6 -6 -16 v-672q0 -274 -145 -430t-398 -156q-135 0 -244.5 32.5t-194.5 100.5t-132 182.5t-47 268.5v674q0 10 -6 16l-111 147q-2 2 -2.5 4zM770 1513l156 275q41 70 112 70q45 0 75 -30t30 -69q0 -86 -78 -129l-209 -117q-6 -4 -12 -4h-72z" />
<glyph unicode="&#xdb;" horiz-adv-x="1566" d="M93.5 1388q-0.5 2 0.5 3.5t4 1.5h516q4 0 4.5 -3t-2.5 -6l-110 -147q-6 -6 -6 -16v-742q0 -191 100.5 -298t280.5 -107q84 0 157.5 27t131 79.5t91 137t33.5 190.5v713q0 10 -6 16l-110 147q-2 2 -2.5 4t0.5 3.5t4 1.5h309q4 0 4.5 -3t-2.5 -6l-111 -147q-6 -6 -6 -16 v-672q0 -274 -145 -430t-398 -156q-135 0 -244.5 32.5t-194.5 100.5t-132 182.5t-47 268.5v674q0 10 -6 16l-111 147q-2 2 -2.5 4zM573 1516l234 333q4 4 10 4h146q6 0 10 -4l229 -333q2 -5 -2 -5h-67q-6 0 -11 5l-231 172q-3 3 -8 0l-230 -172q-5 -5 -10 -5h-68z" />
<glyph unicode="&#xdc;" horiz-adv-x="1521" d="M34.5 1388q-0.5 2 0.5 3.5t4 1.5h516q4 0 4.5 -3t-2.5 -6l-111 -147q-6 -6 -6 -16v-742q0 -191 100.5 -298t280.5 -107q84 0 157.5 27t131.5 79.5t91.5 137t33.5 190.5v713q0 10 -6 16l-111 147q-2 2 -2.5 4t0.5 3.5t4 1.5h310q4 0 4.5 -3t-2.5 -6l-111 -147 q-6 -6 -6 -16v-672q0 -274 -145 -430t-398 -156q-135 0 -244.5 32.5t-194.5 100.5t-132 182.5t-47 268.5v674q0 9 -7 16l-110 147q-2 2 -2.5 4zM498 1681q0 53 43 97.5t98 44.5t98 -44.5t43 -97.5q0 -56 -42 -98.5t-99 -42.5q-58 0 -99.5 42.5t-41.5 98.5zM872 1681 q0 53 43.5 97.5t98.5 44.5t98 -44.5t43 -97.5q0 -56 -42 -98.5t-99 -42.5q-58 0 -100 42.5t-42 98.5z" />
<glyph unicode="&#xdd;" horiz-adv-x="1302" d="M-8 1386q-3 3 0 6q0 1 2 1h532q5 -1 2 -7l-92 -120v-6l242 -429q56 -106 59 -151q0 -4 4 0l342 559q2 6 0 8l-92 139q-3 3 0 6q0 1 2 1h320q5 -1 2 -7q-112 -98 -150 -157l-325 -527q-29 -48 -29 -102v-428q0 -10 6 -16l111 -148q8 -8 -2 -8h-518q-10 0 -2 8l110 148 q6 6 6 16v322q0 61 -28 108l-340 563q-93 172 -162 221zM676 1516l155 274q41 70 113 70q45 0 75 -30t30 -69q0 -86 -78 -129l-209 -116q-8 -5 -12 -5h-72z" />
<glyph unicode="&#xde;" horiz-adv-x="1220" d="M66 3q0 3 2 5l96 148q4 6 4 14v1053q0 8 -4 14l-96 147q-2 2 -2 5.5t4 3.5h358q6 0 6 -7v-421q0 -8 4 0q93 157 285 157q202 0 309 -114t107 -314q0 -201 -107.5 -318.5t-308.5 -117.5q-106 0 -178 42t-107 110q-4 8 -4 0v-404q0 -6 -6 -6h-358q-4 0 -4 3zM430 696 q0 -172 60.5 -271t164.5 -99q40 0 74.5 19.5t64 60.5t47 115t17.5 173q0 191 -58.5 278t-144.5 87q-84 0 -154.5 -97t-70.5 -266z" />
<glyph unicode="&#xdf;" horiz-adv-x="1294" d="M66 8l96 148q6 9 6 20v725q0 108 31.5 203t91.5 168t154.5 115.5t211.5 42.5q99 0 182.5 -27t136 -71t81 -97t28.5 -107q0 -113 -54.5 -193t-145.5 -120q-8 -4 0 -4q164 -38 265 -135.5t101 -233.5q0 -108 -42 -194t-114 -139t-164.5 -81t-197.5 -28h-123q-4 0 -4 4v66 l4 4h70q124 0 202.5 89t78.5 257q0 142 -101 236t-250 94q-4 0 -4 4v65l4 4q55 0 94 26t58.5 71.5t27 97t5.5 112.5q-5 98 -53 159t-126 61q-41 0 -71.5 -18.5t-47 -45t-26.5 -62.5t-13 -64t-3 -58v-1096q0 -6 -6 -6h-381q-10 0 -2 8z" />
<glyph unicode="&#xe0;" horiz-adv-x="1138" d="M78 254q0 122 99.5 199t266.5 98l197 24q102 11 102 150q0 252 -204 252q-68 0 -120.5 -45t-66.5 -109q-2 -6 2 -10l105 -121q4 -8 -4 -8h-324q-6 0 -6 8q25 150 150 254.5t294 104.5q71 0 135 -14t121.5 -45t99.5 -77t66.5 -114t24.5 -152v-293q0 -132 14.5 -208 t48.5 -144q2 -4 -4 -4q-91 0 -183 26t-134 54q-6 4 -10 0q-86 -117 -287 -117q-183 0 -283 81t-100 210zM301 1395q0 39 30 68.5t75 29.5q71 0 112 -70l156 -274q4 -4 -2 -4h-72q-6 0 -12 4l-209 117q-78 43 -78 129zM373 270q0 -109 46.5 -171t133.5 -62q72 0 131 62.5 t59 185.5v260q0 8 -4 0q-24 -31 -98 -41l-102 -15q-75 -11 -120.5 -65t-45.5 -154z" />
<glyph unicode="&#xe1;" horiz-adv-x="1138" d="M78 254q0 122 99.5 199t266.5 98l197 24q102 11 102 150q0 252 -204 252q-68 0 -120.5 -45t-66.5 -109q-2 -6 2 -10l105 -121q4 -8 -4 -8h-324q-6 0 -6 8q25 150 150 254.5t294 104.5q71 0 135 -14t121.5 -45t99.5 -77t66.5 -114t24.5 -152v-293q0 -132 14.5 -208 t48.5 -144q2 -4 -4 -4q-91 0 -183 26t-134 54q-6 4 -10 0q-86 -117 -287 -117q-183 0 -283 81t-100 210zM373 270q0 -109 46.5 -171t133.5 -62q72 0 131 62.5t59 185.5v260q0 8 -4 0q-24 -31 -98 -41l-102 -15q-75 -11 -120.5 -65t-45.5 -154zM514 1149l156 274 q41 70 112 70q45 0 75 -29.5t30 -68.5q0 -86 -78 -129l-209 -117q-6 -4 -12 -4h-72z" />
<glyph unicode="&#xe2;" horiz-adv-x="1138" d="M78 254q0 122 99.5 199t266.5 98l197 24q102 11 102 150q0 252 -204 252q-68 0 -120.5 -45t-66.5 -109q-2 -6 2 -10l105 -121q4 -8 -4 -8h-324q-6 0 -6 8q25 150 150 254.5t294 104.5q71 0 135 -14t121.5 -45t99.5 -77t66.5 -114t24.5 -152v-293q0 -132 14.5 -208 t48.5 -144q2 -4 -4 -4q-91 0 -183 26t-134 54q-6 4 -10 0q-86 -117 -287 -117q-183 0 -283 81t-100 210zM244 1153l233 334q4 4 10 4h146q6 0 10 -4l229 -334q2 -4 -2 -4h-67q-6 0 -10 4l-232 172q-3 3 -8 0l-229 -172q-4 -4 -11 -4h-67zM373 270q0 -109 46.5 -171 t133.5 -62q72 0 131 62.5t59 185.5v260q0 8 -4 0q-24 -31 -98 -41l-102 -15q-75 -11 -120.5 -65t-45.5 -154z" />
<glyph unicode="&#xe3;" horiz-adv-x="1138" d="M78 254q0 122 99.5 199t266.5 98l197 24q102 11 102 150q0 252 -204 252q-68 0 -120.5 -45t-66.5 -109q-2 -6 2 -10l105 -121q4 -8 -4 -8h-324q-6 0 -6 8q25 150 150 254.5t294 104.5q71 0 135 -14t121.5 -45t99.5 -77t66.5 -114t24.5 -152v-293q0 -132 14.5 -208 t48.5 -144q2 -4 -4 -4q-91 0 -183 26t-134 54q-6 4 -10 0q-86 -117 -287 -117q-183 0 -283 81t-100 210zM238 1192q27 126 81 199t154 73q49 0 91 -21.5t67.5 -47t63 -47t77.5 -21.5q17 0 31 5.5t22 11.5t16 21.5t11 23.5t9 29.5t9 29.5q2 6 7 6h65l2 -6q-12 -59 -28 -103.5 t-41.5 -85.5t-65 -63t-90.5 -22q-45 0 -84.5 14.5t-66.5 35t-51 40.5t-49 34.5t-50 14.5q-47 0 -68.5 -30.5t-38.5 -90.5q-2 -6 -8 -6h-63zM373 270q0 -109 46.5 -171t133.5 -62q72 0 131 62.5t59 185.5v260q0 8 -4 0q-24 -31 -98 -41l-102 -15q-75 -11 -120.5 -65 t-45.5 -154z" />
<glyph unicode="&#xe4;" horiz-adv-x="1138" d="M78 254q0 122 99.5 199t266.5 98l197 24q102 11 102 150q0 252 -204 252q-68 0 -120.5 -45t-66.5 -109q-2 -6 2 -10l105 -121q4 -8 -4 -8h-324q-6 0 -6 8q25 150 150 254.5t294 104.5q71 0 135 -14t121.5 -45t99.5 -77t66.5 -114t24.5 -152v-293q0 -132 14.5 -208 t48.5 -144q2 -4 -4 -4q-91 0 -183 26t-134 54q-6 4 -10 0q-86 -117 -287 -117q-183 0 -283 81t-100 210zM248 1319q0 53 43 97t98 44t98 -44t43 -97q0 -56 -42 -98.5t-99 -42.5q-58 0 -99.5 42.5t-41.5 98.5zM373 270q0 -109 46.5 -171t133.5 -62q72 0 131 62.5t59 185.5 v260q0 8 -4 0q-24 -31 -98 -41l-102 -15q-75 -11 -120.5 -65t-45.5 -154zM623 1319q0 53 43 97t98 44t98 -44t43 -97q0 -56 -42 -98.5t-99 -42.5q-58 0 -99.5 42.5t-41.5 98.5z" />
<glyph unicode="&#xe5;" horiz-adv-x="1138" d="M78 254q0 122 99.5 199t266.5 98l197 24q102 11 102 150q0 252 -204 252q-68 0 -120.5 -45t-66.5 -109q-2 -6 2 -10l105 -121q4 -8 -4 -8h-324q-6 0 -6 8q25 150 150 254.5t294 104.5q71 0 135 -14t121.5 -45t99.5 -77t66.5 -114t24.5 -152v-293q0 -132 14.5 -208 t48.5 -144q2 -4 -4 -4q-91 0 -183 26t-134 54q-6 4 -10 0q-86 -117 -287 -117q-183 0 -283 81t-100 210zM362 1317q0 83 60 143t143 60t142 -60t59 -143t-59 -142t-142 -59t-143 59t-60 142zM373 270q0 -109 46.5 -171t133.5 -62q72 0 131 62.5t59 185.5v260q0 8 -4 0 q-24 -31 -98 -41l-102 -15q-75 -11 -120.5 -65t-45.5 -154zM461 1317q0 -41 30.5 -72t73.5 -31q41 0 72 31t31 72q0 43 -31 73.5t-72 30.5q-43 0 -73.5 -30.5t-30.5 -73.5z" />
<glyph unicode="&#xe6;" horiz-adv-x="1845" d="M55 246q0 124 107 205.5t280 99.5l209 20q58 6 96.5 46t38.5 106q0 60 -16.5 107t-42 74t-59.5 44t-65 23t-64 6q-73 0 -144 -46.5t-88 -107.5q-2 -6 2 -10l105 -121q4 -8 -6 -8h-314q-6 0 -6 8q25 149 160 254t311 105q102 0 206 -41.5t167 -110.5q2 -2 4 0 q152 152 383 152q232 0 356.5 -120.5t130.5 -363.5q0 -6 -4 -6h-731q-22 0 -22 -22q-7 -138 22.5 -250t101.5 -182t177 -70q60 0 112 26.5t88 70.5t60 90.5t37 94.5q3 8 8 3l137 -103q3 -3 0 -8q-56 -111 -189 -179.5t-278 -68.5q-157 0 -279.5 63t-189.5 173q-3 3 -4 0 q-52 -121 -142 -178.5t-227 -57.5q-203 0 -315.5 77.5t-112.5 205.5zM344 262q0 -114 53.5 -169.5t134.5 -55.5q108 0 179 73.5t71 194.5v240q-4 4 -4 0q-11 -14 -48 -27.5t-79 -17.5l-106 -13q-85 -8 -143 -66.5t-58 -158.5zM1055 639q0 -4 4 -4h452q9 0 9 10 q0 63 -11.5 119.5t-35 105.5t-66 78t-98.5 29q-118 0 -186 -97.5t-68 -240.5z" />
<glyph unicode="&#xe7;" horiz-adv-x="1163" d="M80 498q0 112 42.5 212.5t118 176t187.5 120t244 44.5q192 0 313 -91t145 -268q0 -8 -6 -8h-323q-10 0 -6 8l114 113q2 2 2 8q-13 75 -75 119.5t-140 44.5q-145 0 -229 -123t-84 -338t84.5 -347t232.5 -132q99 0 165 71t93 193q0 3 3 5t6 -1l157 -108q4 -5 0 -9 q-170 -223 -401 -223q-3 0 -6 -6l-37 -88q-2 -4 2 -4q27 6 51 6q74 0 126 -38.5t52 -113.5q0 -48 -21 -85t-55 -57t-71.5 -30t-75.5 -10q-137 0 -225 43q-2 1 -2 6l31 70q0 5 6 2q72 -29 135 -29q50 0 78 19.5t28 70.5q0 34 -20.5 52t-54.5 18q-43 0 -70 -10h-8l-33 10l-2 6 l70 162q3 6 -5 6q-258 9 -397 152t-139 381z" />
<glyph unicode="&#xe8;" horiz-adv-x="1173" d="M80 502q0 243 156.5 396t402.5 153q233 0 360.5 -121t133.5 -363q0 -6 -5 -6h-731q-22 0 -22 -22q-7 -140 21.5 -250.5t102 -181t183.5 -70.5q56 0 106 27t86 70t61 90t38 95q3 8 8 3l137 -103q3 -3 0 -8q-55 -111 -191 -179.5t-282 -68.5q-256 0 -410.5 144.5 t-154.5 394.5zM381 639q0 -4 4 -4h440q9 0 9 10q0 83 -22 156.5t-72 124.5t-119 51q-71 0 -127.5 -52t-84.5 -128.5t-28 -157.5zM381 1409q0 39 29.5 68.5t74.5 29.5q73 0 113 -69l156 -275q4 -4 -2 -4h-72q-6 0 -12 4l-209 117q-78 43 -78 129z" />
<glyph unicode="&#xe9;" horiz-adv-x="1173" d="M80 502q0 243 156.5 396t402.5 153q233 0 360.5 -121t133.5 -363q0 -6 -5 -6h-731q-22 0 -22 -22q-7 -140 21.5 -250.5t102 -181t183.5 -70.5q56 0 106 27t86 70t61 90t38 95q3 8 8 3l137 -103q3 -3 0 -8q-55 -111 -191 -179.5t-282 -68.5q-256 0 -410.5 144.5 t-154.5 394.5zM381 639q0 -4 4 -4h440q9 0 9 10q0 83 -22 156.5t-72 124.5t-119 51q-71 0 -127.5 -52t-84.5 -128.5t-28 -157.5zM471 1165l156 275q40 69 112 69q45 0 75 -29.5t30 -68.5q0 -86 -78 -129l-209 -117q-6 -4 -12 -4h-72z" />
<glyph unicode="&#xea;" horiz-adv-x="1173" d="M80 502q0 243 156.5 396t402.5 153q233 0 360.5 -121t133.5 -363q0 -6 -5 -6h-731q-22 0 -22 -22q-7 -140 21.5 -250.5t102 -181t183.5 -70.5q56 0 106 27t86 70t61 90t38 95q3 8 8 3l137 -103q3 -3 0 -8q-55 -111 -191 -179.5t-282 -68.5q-256 0 -410.5 144.5 t-154.5 394.5zM297 1163l233 334q4 4 11 4h145q6 0 10 -4l230 -334q2 -4 -2 -4h-68q-6 0 -10 4l-232 172q-3 3 -8 0l-229 -172q-4 -4 -10 -4h-68zM381 639q0 -4 4 -4h440q9 0 9 10q0 83 -22 156.5t-72 124.5t-119 51q-71 0 -127.5 -52t-84.5 -128.5t-28 -157.5z" />
<glyph unicode="&#xeb;" horiz-adv-x="1173" d="M80 502q0 243 156.5 396t402.5 153q233 0 360.5 -121t133.5 -363q0 -6 -5 -6h-731q-22 0 -22 -22q-7 -140 21.5 -250.5t102 -181t183.5 -70.5q56 0 106 27t86 70t61 90t38 95q3 8 8 3l137 -103q3 -3 0 -8q-55 -111 -191 -179.5t-282 -68.5q-256 0 -410.5 144.5 t-154.5 394.5zM262 1329q0 53 43 97t98 44t98.5 -44t43.5 -97q0 -56 -42.5 -98.5t-99.5 -42.5q-58 0 -99.5 42.5t-41.5 98.5zM381 639q0 -4 4 -4h440q9 0 9 10q0 83 -22 156.5t-72 124.5t-119 51q-71 0 -127.5 -52t-84.5 -128.5t-28 -157.5zM637 1329q0 53 43 97t98 44 t98.5 -44t43.5 -97q0 -56 -42.5 -98.5t-99.5 -42.5q-58 0 -99.5 42.5t-41.5 98.5z" />
<glyph unicode="&#xec;" horiz-adv-x="610" d="M33 1395q0 39 29.5 68.5t74.5 29.5q72 0 113 -70l156 -274q3 -4 -3 -4h-71q-7 0 -13 4l-208 117q-78 43 -78 129zM59 932l109 -68q4 -2 4 -8v-682q0 -9 -6 -18l-92 -148q-8 -8 2 -8h459q10 0 2 8l-93 148q-6 9 -6 18v873q0 6 -6 4l-373 -111q-10 -3 0 -8z" />
<glyph unicode="&#xed;" horiz-adv-x="610" d="M59 932l109 -68q4 -2 4 -8v-682q0 -9 -6 -18l-92 -148q-8 -8 2 -8h459q10 0 2 8l-93 148q-6 9 -6 18v873q0 6 -6 4l-373 -111q-10 -3 0 -8zM160 1149l155 274q41 70 113 70q45 0 74.5 -29.5t29.5 -68.5q0 -87 -77 -129l-209 -117q-6 -4 -13 -4h-71z" />
<glyph unicode="&#xee;" horiz-adv-x="610" d="M-8 1151l233 334q4 4 11 4h145q6 0 10 -4l230 -334q1 -4 -3 -4h-67q-6 0 -10 4l-232 172q-3 3 -8 0l-229 -172q-4 -4 -11 -4h-67zM59 932q-10 5 0 8l373 111q6 2 6 -4v-873q0 -9 6 -18l93 -148q8 -8 -2 -8h-459q-10 0 -2 8l92 148q6 9 6 18v682q0 6 -4 8z" />
<glyph unicode="&#xef;" horiz-adv-x="610" d="M-31 1319q0 53 43.5 97t98.5 44t98 -44t43 -97q0 -56 -42 -98.5t-99 -42.5q-58 0 -100 42.5t-42 98.5zM55 934q2 -2 4 -2l109 -68q4 -2 4 -8v-682q0 -9 -6 -18l-92 -148q-8 -8 2 -8h459h4v4q0 1 -1 2t-1 2l-93 148q-6 6 -6 12v6v873q0 4 -2 4h-2h-2l-373 -111l-2 -2 q-6 0 -2 -4zM344 1319q0 53 43 97t98 44t98.5 -44t43.5 -97q0 -56 -42.5 -98.5t-99.5 -42.5q-58 0 -99.5 42.5t-41.5 98.5z" />
<glyph unicode="&#xf0;" horiz-adv-x="1222" d="M57 442q0 88 30.5 170t88 150t152.5 108.5t213 40.5q180 0 278 -131h4q0 81 -26 158.5t-67 135.5t-84.5 101t-86.5 68q-2 2 -4 0l-117 -143q-6 -6 -10 -6h-88q-8 0 -2 6l149 184q4 4 0 6q-139 68 -256 82q-7 0 -4 6l23 47q2 5 8 5q75 -6 154 -26t131 -46q4 -2 8 2l96 119 q6 6 8 6h88q9 0 5 -6l-125 -152q-4 -4 0 -6q214 -108 341.5 -319.5t127.5 -464.5q0 -123 -35 -226.5t-104 -181.5t-178.5 -122t-250.5 -44q-64 0 -127 16t-125 52.5t-109 90t-76.5 136.5t-29.5 184zM336 442q0 -113 22.5 -196t60 -126.5t77 -63t82.5 -19.5q124 0 187.5 106 t63.5 316q0 164 -60 268t-175 104q-63 0 -114 -34t-81.5 -90.5t-46.5 -124t-16 -140.5z" />
<glyph unicode="&#xf1;" horiz-adv-x="1277" d="M59 948l109 -67q4 -2 4 -9v-698q0 -6 -6 -18l-80 -148q-8 -8 2 -8h459q10 0 2 8l-105 148q-6 8 -6 18v414q0 179 73 281t179 102q160 0 160 -193v-604q0 -10 -6 -18l-107 -148q-8 -8 2 -8h459q10 0 2 8l-78 148q-6 12 -6 18v524q0 171 -99.5 262t-252.5 91 q-239 0 -322 -162q-4 -4 -4 0v174q0 6 -6 4l-373 -111q-10 -3 0 -8zM272 1190q27 126 81.5 199t154.5 73q49 0 91 -21.5t67.5 -47t63 -47t77.5 -21.5q17 0 31 5.5t22 11.5t16 21.5t11 23.5t9 29.5t9 29.5q2 6 6 6h66l2 -6q-12 -59 -28 -103.5t-41.5 -86t-65 -63.5t-90.5 -22 q-45 0 -84.5 14.5t-66.5 35t-51 41t-49 35t-50 14.5q-47 0 -68.5 -30.5t-38.5 -90.5q-2 -6 -8 -6h-64z" />
<glyph unicode="&#xf2;" horiz-adv-x="1265" d="M74 506q0 145 77 271.5t205.5 200t274.5 73.5t275.5 -73.5t207.5 -200t78 -271.5q0 -163 -76 -288t-203 -190t-282 -65q-154 0 -280.5 66.5t-201.5 191.5t-75 285zM291 1395q0 39 29.5 68.5t74.5 29.5q72 0 113 -70l156 -274q4 -4 -2 -4h-72q-6 0 -12 4l-209 117 q-78 43 -78 129zM387 506q0 -132 27 -237t83 -168.5t134 -63.5q117 0 183.5 133t66.5 336q0 223 -67 347t-183 124q-121 0 -182.5 -121.5t-61.5 -349.5z" />
<glyph unicode="&#xf3;" horiz-adv-x="1265" d="M74 506q0 145 77 271.5t205.5 200t274.5 73.5t275.5 -73.5t207.5 -200t78 -271.5q0 -163 -76 -288t-203 -190t-282 -65q-154 0 -280.5 66.5t-201.5 191.5t-75 285zM387 506q0 -132 27 -237t83 -168.5t134 -63.5q117 0 183.5 133t66.5 336q0 223 -67 347t-183 124 q-121 0 -182.5 -121.5t-61.5 -349.5zM602 1147l156 274q41 70 112 70q45 0 75 -29.5t30 -68.5q0 -86 -78 -129l-209 -117q-6 -4 -12 -4h-72z" />
<glyph unicode="&#xf4;" horiz-adv-x="1265" d="M74 506q0 145 77 271.5t205.5 200t274.5 73.5t275.5 -73.5t207.5 -200t78 -271.5q0 -163 -76 -288t-203 -190t-282 -65q-154 0 -280.5 66.5t-201.5 191.5t-75 285zM319 1151l234 334q4 4 10 4h146q6 0 10 -4l229 -334q2 -4 -2 -4h-67q-7 0 -11 4l-231 172q-3 3 -8 0 l-230 -172q-4 -4 -10 -4h-67zM387 506q0 -132 27 -237t83 -168.5t134 -63.5q117 0 183.5 133t66.5 336q0 223 -67 347t-183 124q-121 0 -182.5 -121.5t-61.5 -349.5z" />
<glyph unicode="&#xf5;" horiz-adv-x="1265" d="M74 506q0 145 77 271.5t205.5 200t274.5 73.5t275.5 -73.5t207.5 -200t78 -271.5q0 -163 -76 -288t-203 -190t-282 -65q-154 0 -280.5 66.5t-201.5 191.5t-75 285zM276 1192q27 126 81.5 199t154.5 73q49 0 91 -21.5t67.5 -47t63 -47t77.5 -21.5q17 0 31 5.5t22 11.5 t16 21.5t11 23.5t9 29.5t9 29.5q2 6 6 6h66l2 -6q-12 -59 -28 -103.5t-41.5 -85.5t-65 -63t-90.5 -22q-45 0 -84.5 14.5t-66.5 35t-51 40.5t-49 34.5t-50 14.5q-47 0 -68.5 -30.5t-38.5 -90.5q-2 -6 -8 -6h-63zM387 506q0 -132 27 -237t83 -168.5t134 -63.5q117 0 183.5 133 t66.5 336q0 223 -67 347t-183 124q-121 0 -182.5 -121.5t-61.5 -349.5z" />
<glyph unicode="&#xf6;" horiz-adv-x="1265" d="M74 506q0 145 77 271.5t205.5 200t274.5 73.5t275.5 -73.5t207.5 -200t78 -271.5q0 -163 -76 -288t-203 -190t-282 -65q-154 0 -280.5 66.5t-201.5 191.5t-75 285zM303 1319q0 53 43 97t98 44t98.5 -44t43.5 -97q0 -56 -42.5 -98.5t-99.5 -42.5q-58 0 -99.5 42.5 t-41.5 98.5zM387 506q0 -132 27 -237t83 -168.5t134 -63.5q117 0 183.5 133t66.5 336q0 223 -67 347t-183 124q-121 0 -182.5 -121.5t-61.5 -349.5zM678 1319q0 53 43 97t98 44t98.5 -44t43.5 -97q0 -56 -42.5 -98.5t-99.5 -42.5q-58 0 -99.5 42.5t-41.5 98.5z" />
<glyph unicode="&#xf7;" horiz-adv-x="897" d="M51 477v72q0 4 6 4h783q6 0 6 -4v-72q0 -4 -6 -4h-783q-6 0 -6 4zM285 211q0 65 46.5 111.5t110.5 46.5t111 -46.5t47 -111.5t-47 -111.5t-111 -46.5t-110.5 46.5t-46.5 111.5zM285 817q0 65 46.5 111.5t110.5 46.5t111 -46.5t47 -111.5t-47 -111.5t-111 -46.5 t-110.5 46.5t-46.5 111.5z" />
<glyph unicode="&#xf8;" horiz-adv-x="1265" d="M74 506q0 145 77 271.5t205.5 200t274.5 73.5q167 0 317 -103l78 96q7 7 8 7h74q9 0 4 -7l-111 -135q89 -77 140 -182t51 -221q0 -163 -76 -288t-203 -190t-282 -65q-183 0 -326 92l-69 -86q-6 -6 -11 -6h-73q-8 0 -2 6l102 127q-85 72 -131.5 177t-46.5 233zM387 506 q0 -126 23 -217l424 520q-66 168 -203 168q-121 0 -182.5 -121.5t-61.5 -349.5zM432 211q67 -174 199 -174q117 0 183.5 133t66.5 336q0 127 -25 225z" />
<glyph unicode="&#xf9;" horiz-adv-x="1292" d="M59 946l109 -76q4 -2 4 -8v-565q0 -89 31 -156t85 -104.5t118 -55.5t139 -18q202 0 311 146q4 4 10 0q45 -30 155.5 -69t168.5 -40q6 0 4 6q-72 144 -72 318v737l-6 4l-373 -109q-10 -3 0 -8l109 -76q4 -2 4 -8v-540q0 -113 -71.5 -200t-184.5 -87q-76 0 -119 56.5 t-43 160.5v809l-6 4l-373 -113q-10 -3 0 -8zM336 1409q0 39 29.5 68.5t74.5 29.5q73 0 113 -69l156 -275q4 -4 -2 -4h-72q-6 0 -12 4l-209 117q-78 43 -78 129z" />
<glyph unicode="&#xfa;" horiz-adv-x="1292" d="M59 946l109 -76q4 -2 4 -8v-565q0 -89 31 -156t85 -104.5t118 -55.5t139 -18q202 0 311 146q4 4 10 0q45 -30 155.5 -69t168.5 -40q6 0 4 6q-72 144 -72 318v737l-6 4l-373 -109q-10 -3 0 -8l109 -76q4 -2 4 -8v-540q0 -113 -71.5 -200t-184.5 -87q-76 0 -119 56.5 t-43 160.5v809l-6 4l-373 -113q-10 -3 0 -8zM537 1165l155 275q40 69 113 69q45 0 74.5 -29.5t29.5 -68.5q0 -86 -78 -129l-208 -117q-6 -4 -13 -4h-71z" />
<glyph unicode="&#xfb;" horiz-adv-x="1292" d="M59 946q-10 5 0 8l373 113l6 -4v-809q0 -104 43 -160.5t119 -56.5q113 0 184.5 87t71.5 200v540q0 6 -4 8l-109 76q-10 5 0 8l373 109l6 -4v-737q0 -174 72 -318q2 -6 -4 -6q-58 1 -168.5 40t-155.5 69q-6 4 -10 0q-109 -146 -311 -146q-75 0 -139 18t-118 55.5 t-85 104.5t-31 156v565q0 6 -4 8zM319 1163l234 334q4 4 10 4h146q6 0 10 -4l229 -334q2 -4 -2 -4h-67q-7 0 -11 4l-231 172q-3 3 -8 0l-230 -172q-4 -4 -10 -4h-67z" />
<glyph unicode="&#xfc;" horiz-adv-x="1292" d="M59 946l109 -76q4 -2 4 -8v-565q0 -89 31 -156t85 -104.5t118 -55.5t139 -18q202 0 311 146q4 4 10 0q45 -30 155.5 -69t168.5 -40q6 0 4 6q-72 144 -72 318v737l-6 4l-373 -109q-10 -3 0 -8l109 -76q4 -2 4 -8v-540q0 -113 -71.5 -200t-184.5 -87q-76 0 -119 56.5 t-43 160.5v809l-6 4l-373 -113q-10 -3 0 -8zM330 1329q0 53 43 97t98 44t98 -44t43 -97q0 -56 -42 -98.5t-99 -42.5q-58 0 -99.5 42.5t-41.5 98.5zM705 1329q0 53 43 97t98 44t98 -44t43 -97q0 -56 -42 -98.5t-99 -42.5q-58 0 -99.5 42.5t-41.5 98.5z" />
<glyph unicode="&#xfd;" horiz-adv-x="1013" d="M-12 1008q-2 4 2 6h473q4 -1 2 -6l-80 -121v-6l197 -426q46 -98 57 -148q1 -3 4 2l236 572q2 6 0 8l-74 119q-2 4 2 6h244q4 -1 2 -6q-58 -51 -123 -203l-473 -1129q-40 -97 -95 -138.5t-139 -37.5q-54 3 -101.5 37t-58.5 62q-4 4 0 8l213 250q7 3 7 -2v-205 q0 -21 9.5 -34t26.5 -13q2 2 8.5 0t19.5 8.5t22 32.5l114 280q15 37 5.5 82t-50.5 133l-313 649q-1 1 -14 27.5t-17 34.5t-16.5 32t-20.5 36.5t-20 31t-24 32.5t-25 26zM555 1163l156 275q40 69 112 69q45 0 75 -29.5t30 -68.5q0 -86 -78 -129l-209 -117q-6 -4 -12 -4h-72z " />
<glyph unicode="&#xfe;" horiz-adv-x="1300" d="M100.5 -407.5q0.5 2.5 3.5 4.5l109 67q4 2 4 8v1618q0 6 -4 8l-109 68q-10 5 0 8l373 111q6 2 6 -4v-647q0 -8 4 0q31 81 109 149t178 68q206 0 327.5 -133.5t121.5 -401.5q0 -139 -41 -248.5t-107.5 -174t-144 -97.5t-158.5 -33q-183 0 -285 170q-4 4 -4 -2v-649 q0 -6 -6 -4l-373 110q-4 2 -3.5 4.5zM479 514q0 -219 71.5 -345t166.5 -126q98 0 161 127t66 344q3 194 -61.5 322.5t-165.5 128.5q-57 0 -112.5 -64.5t-90.5 -170t-35 -216.5z" />
<glyph unicode="&#xff;" horiz-adv-x="1017" d="M-12 1008q-2 4 2 6h473q4 -1 2 -6l-80 -121v-6l197 -426q46 -98 57 -148q1 -3 4 2l236 572q2 6 0 8l-74 119q-2 4 2 6h244q4 -1 2 -6q-58 -51 -123 -203l-473 -1129q-40 -97 -95 -138.5t-139 -37.5q-54 3 -101.5 37t-58.5 62q-4 4 0 8l213 250q7 3 7 -2v-205 q0 -21 9.5 -34t26.5 -13q2 2 8.5 0t19.5 8.5t22 32.5l114 280q15 37 5.5 82t-50.5 133l-313 649q-1 1 -14 27.5t-17 34.5t-16.5 32t-20.5 36.5t-20 31t-24 32.5t-25 26zM260 1331q0 53 43 97.5t98 44.5t98.5 -44.5t43.5 -97.5q0 -56 -42.5 -98.5t-99.5 -42.5 q-58 0 -99.5 42.5t-41.5 98.5zM635 1331q0 53 43 97.5t98 44.5t98.5 -44.5t43.5 -97.5q0 -56 -42.5 -98.5t-99.5 -42.5q-58 0 -99.5 42.5t-41.5 98.5z" />
<glyph unicode="&#x152;" horiz-adv-x="2445" d="M100 692q0 200 105.5 370.5t281.5 269t377 98.5q147 0 279.5 -54.5t232.5 -152.5q7 -3 9 2.5t-1 13.5l-61 145q-2 2 -2 5.5t4 3.5h737h20.5h22t22 0.5t24 1t23 1.5t25 2.5t24.5 3.5t26.5 5t25.5 7t27 9q6 3 6 -2v-383q0 -6 -3.5 -6t-6.5 6l-127 215q-7 12 -13 21.5 t-13 16.5t-11.5 12t-12.5 8t-11.5 5t-14.5 2.5t-15 0.5h-18h-20h-414q-12 0 -20.5 -9t-8.5 -22v-452q0 -29 17 -46.5t45 -17.5h258q42 0 65 8t48 35l116 125q3 4 6 2.5t3 -4.5v-426q0 -6 -4 -7t-7 5l-121 149q-31 39 -106 39h-258q-28 0 -45 -17t-17 -46v-539q0 -22 19 -22 h328q141 0 211 55l251 203q5 3 7.5 1.5t1.5 -5.5l-113 -322q-2 -6 -8 -6h-969q-7 0 -4 8l61 137q3 7 -0.5 11t-9.5 2q-101 -93 -232.5 -144t-277.5 -51q-150 0 -288.5 54t-244 148t-168.5 231.5t-63 295.5zM408 692q0 -185 56.5 -333t166.5 -235t256 -87q109 0 193.5 50 t136.5 139.5t78 207t26 258.5q0 186 -55.5 334t-166.5 236t-259 88q-111 0 -195.5 -49.5t-135.5 -139.5t-76 -207.5t-25 -261.5z" />
<glyph unicode="&#x153;" horiz-adv-x="1957" d="M74 506q0 146 74.5 272t200.5 199.5t272 73.5q112 0 217 -55.5t170 -139.5q2 -2 4 0q65 85 179.5 140t240.5 55q232 0 356.5 -120.5t130.5 -363.5q0 -6 -4 -6h-731q-23 0 -23 -22q-7 -138 22.5 -250t101.5 -182t177 -70q60 0 112 26.5t88 70.5t60 90.5t37 94.5q3 8 8 3 l138 -103q3 -3 0 -8q-56 -111 -189 -179.5t-278 -68.5q-246 0 -420 174q-2 2 -4 0q-171 -174 -393 -174q-154 0 -278 66.5t-196.5 191t-72.5 285.5zM377 506q0 -132 27 -237t83 -168.5t134 -63.5q117 0 183 133t66 336q0 223 -66.5 347t-182.5 124q-121 0 -182.5 -121.5 t-61.5 -349.5zM1167 639q0 -4 4 -4h453q8 0 8 10q0 63 -11.5 119.5t-35 105.5t-66 78t-98.5 29q-118 0 -186 -97.5t-68 -240.5z" />
<glyph unicode="&#x178;" horiz-adv-x="1302" d="M-8 1386q-3 3 0 6q0 1 2 1h532q5 -1 2 -7l-92 -120v-6l242 -429q56 -106 59 -151q0 -4 4 0l342 559q2 6 0 8l-92 139q-3 3 0 6q0 1 2 1h320q5 -1 2 -7q-112 -98 -150 -157l-325 -527q-29 -48 -29 -102v-428q0 -10 6 -16l111 -148q8 -8 -2 -8h-518q-10 0 -2 8l110 148 q6 6 6 16v322q0 61 -28 108l-340 563q-93 172 -162 221zM367 1681q0 53 43 97.5t98 44.5t98 -44.5t43 -97.5q0 -56 -42 -98.5t-99 -42.5q-58 0 -99.5 42.5t-41.5 98.5zM741 1681q0 53 43.5 97.5t98.5 44.5t98 -44.5t43 -97.5q0 -56 -42 -98.5t-99 -42.5q-58 0 -100 42.5 t-42 98.5z" />
<glyph unicode="&#x2c6;" horiz-adv-x="878" d="M125 1055l233 334q4 4 11 4h145q6 0 10 -4l230 -334q2 -4 -2 -4h-68q-6 0 -10 4l-232 172q-3 3 -8 0l-229 -172q-4 -4 -10 -4h-68z" />
<glyph unicode="&#x2dc;" horiz-adv-x="921" d="M72 1098q27 126 81 199t154 73q49 0 91 -21.5t67.5 -47t63 -47t77.5 -21.5q17 0 31 5.5t22 11.5t16 21.5t11 23t10 30t9 29.5q2 6 6 6h65l2 -6q-12 -59 -28 -103.5t-41.5 -86t-65 -63.5t-90.5 -22q-45 0 -84.5 14.5t-66.5 35t-51 41t-49 35t-50 14.5q-47 0 -68.5 -30.5 t-38.5 -90.5q-2 -6 -8 -6h-63z" />
<glyph unicode="&#x2000;" horiz-adv-x="942" />
<glyph unicode="&#x2001;" horiz-adv-x="1884" />
<glyph unicode="&#x2002;" horiz-adv-x="942" />
<glyph unicode="&#x2003;" horiz-adv-x="1884" />
<glyph unicode="&#x2004;" horiz-adv-x="628" />
<glyph unicode="&#x2005;" horiz-adv-x="471" />
<glyph unicode="&#x2006;" horiz-adv-x="314" />
<glyph unicode="&#x2007;" horiz-adv-x="314" />
<glyph unicode="&#x2008;" horiz-adv-x="235" />
<glyph unicode="&#x2009;" horiz-adv-x="376" />
<glyph unicode="&#x200a;" horiz-adv-x="104" />
<glyph unicode="&#x2010;" horiz-adv-x="579" d="M51 477v72q0 4 6 4h445q6 0 6 -4v-72q0 -4 -6 -4h-445q-6 0 -6 4z" />
<glyph unicode="&#x2011;" horiz-adv-x="579" d="M51 477v72q0 4 6 4h445q6 0 6 -4v-72q0 -4 -6 -4h-445q-6 0 -6 4z" />
<glyph unicode="&#x2012;" horiz-adv-x="579" d="M51 477v72q0 4 6 4h445q6 0 6 -4v-72q0 -4 -6 -4h-445q-6 0 -6 4z" />
<glyph unicode="&#x2013;" horiz-adv-x="999" d="M51 477v72q0 4 6 4h885q6 0 6 -4v-72q0 -4 -6 -4h-885q-6 0 -6 4z" />
<glyph unicode="&#x2014;" horiz-adv-x="1243" d="M51 477v72q0 4 6 4h1129q6 0 6 -4v-72q0 -4 -6 -4h-1129q-6 0 -6 4z" />
<glyph unicode="&#x2018;" horiz-adv-x="540" d="M154 1305q0 90 41.5 178.5t106.5 144t130 55.5q5 0 5.5 -2.5t-3.5 -3.5q-68 -41 -111.5 -110t-43.5 -142q0 -6 4 -4q18 9 39 9q64 0 105.5 -45.5t41.5 -110.5q0 -69 -46.5 -114.5t-113.5 -45.5q-75 0 -115 55.5t-40 135.5z" />
<glyph unicode="&#x2019;" horiz-adv-x="540" d="M72 1270q0 70 46 115t113 45q75 0 115.5 -55.5t40.5 -135.5q0 -90 -41.5 -178.5t-106.5 -144.5t-130 -56q-5 0 -6 2.5t3 3.5q68 41 112 110t44 142q0 6 -4 4q-16 -8 -39 -8q-64 0 -105.5 45.5t-41.5 110.5z" />
<glyph unicode="&#x201a;" horiz-adv-x="540" d="M72 119q0 70 46 115t113 45q75 0 115.5 -55t40.5 -130q0 -92 -41.5 -182.5t-106.5 -146.5t-130 -56q-5 0 -6 2.5t3 3.5q68 41 112 110t44 142q0 6 -4 4q-16 -8 -39 -8q-64 0 -105.5 45.5t-41.5 110.5z" />
<glyph unicode="&#x201c;" horiz-adv-x="913" d="M154 1305q0 90 41.5 178.5t106.5 144t130 55.5q5 0 5.5 -2.5t-3.5 -3.5q-68 -41 -111.5 -110t-43.5 -142q0 -6 4 -4q18 9 39 9q64 0 105.5 -45.5t41.5 -110.5q0 -69 -46.5 -114.5t-113.5 -45.5q-75 0 -115 55.5t-40 135.5zM526 1305q0 90 41.5 178.5t107 144t130.5 55.5 q5 0 5.5 -2.5t-3.5 -3.5q-68 -41 -112 -110t-44 -142q0 -6 4 -4q18 9 39 9q64 0 106 -45.5t42 -110.5q0 -69 -46.5 -114.5t-113.5 -45.5q-75 0 -115.5 55.5t-40.5 135.5z" />
<glyph unicode="&#x201d;" horiz-adv-x="913" d="M72 1270q0 70 46 115t113 45q75 0 115.5 -55.5t40.5 -135.5q0 -90 -41.5 -178.5t-106.5 -144.5t-130 -56q-5 0 -6 2.5t3 3.5q68 41 112 110t44 142q0 6 -4 4q-16 -8 -39 -8q-64 0 -105.5 45.5t-41.5 110.5zM444 1270q0 69 46.5 114.5t113.5 45.5q75 0 115.5 -55.5 t40.5 -135.5q0 -90 -41.5 -178.5t-107 -144.5t-130.5 -56q-5 0 -5.5 2.5t3.5 3.5q68 41 112 110t44 142q0 6 -4 4q-16 -8 -39 -8q-64 0 -106 45.5t-42 110.5z" />
<glyph unicode="&#x201e;" horiz-adv-x="913" d="M72 119q0 70 46 115t113 45q75 0 115.5 -55.5t40.5 -135.5q0 -90 -41.5 -178.5t-106.5 -144.5t-130 -56q-5 0 -6 2.5t3 3.5q68 41 112 110t44 142q0 6 -4 4q-16 -8 -39 -8q-64 0 -105.5 45.5t-41.5 110.5zM444 119q0 69 46.5 114.5t113.5 45.5q75 0 115.5 -55.5 t40.5 -135.5q0 -90 -41.5 -178.5t-107 -144.5t-130.5 -56q-5 0 -5.5 2.5t3.5 3.5q68 41 112 110t44 142q0 6 -4 4q-16 -8 -39 -8q-64 0 -106 45.5t-42 110.5z" />
<glyph unicode="&#x2022;" horiz-adv-x="907" d="M154 571q0 120 90 209.5t211 89.5q120 0 209.5 -89.5t89.5 -209.5q0 -121 -89.5 -211t-209.5 -90q-121 0 -211 90t-90 211z" />
<glyph unicode="&#x2026;" horiz-adv-x="1622" d="M154 121q0 65 46.5 111.5t110.5 46.5q65 0 111.5 -46.5t46.5 -111.5t-46.5 -111.5t-111.5 -46.5q-64 0 -110.5 46.5t-46.5 111.5zM653 121q0 65 46.5 111.5t111.5 46.5t111.5 -46.5t46.5 -111.5t-46.5 -111.5t-111.5 -46.5t-111.5 46.5t-46.5 111.5zM1153 121 q0 65 46.5 111.5t111.5 46.5q64 0 110.5 -46.5t46.5 -111.5t-46.5 -111.5t-110.5 -46.5q-65 0 -111.5 46.5t-46.5 111.5z" />
<glyph unicode="&#x202f;" horiz-adv-x="376" />
<glyph unicode="&#x2039;" horiz-adv-x="540" d="M92 424v119q0 4 4 6l328 186q4 -3 4 -4v-94q0 -6 -4 -8l-238 -133q-4 -2 -4 -7v-16q0 -4 4 -6l238 -135q4 -2 4 -8v-95q0 -3 -0.5 -3.5t-2.5 -0.5h-1l-328 193q-4 2 -4 6z" />
<glyph unicode="&#x203a;" horiz-adv-x="540" d="M113 229v95q0 6 4 8l237 135q4 2 4 6v16q0 5 -4 7l-237 133q-4 2 -4 8v94q0 3 0.5 3.5t2.5 0.5h1l327 -186q5 -3 5 -6v-119q0 -4 -5 -6l-327 -193q-4 3 -4 4z" />
<glyph unicode="&#x205f;" horiz-adv-x="471" />
<glyph unicode="&#x20ac;" horiz-adv-x="1378" d="M4 496v67q0 6 6 6h96q7 0 7 9q-14 99 0 219q0 8 -7 8h-96q-6 0 -6 6v66q0 6 6 6h113q8 0 8 8q62 242 228 390.5t403 148.5q110 0 194.5 -37.5t159.5 -112.5q5 -5 10 0l119 104q15 10 15 -4v-559q0 -2 -2 -5t-5 -2t-6 7q-72 180 -111 252q-141 261 -345 276q-13 1 -27 1 q-59 0 -111.5 -30t-89 -78t-64 -109.5t-42.5 -122t-19 -117.5q0 -10 11 -10h462q7 0 7 -6v-66q0 -6 -7 -6h-473q-12 0 -12 -10q-11 -114 4 -215q0 -3 4 -7t8 -4h469q7 0 7 -6v-67q0 -7 -7 -7h-454q-8 0 -8 -10q8 -63 32 -133.5t66 -142.5t111.5 -119t154.5 -47q30 0 59 6.5 t56 22.5t49.5 31t47.5 44t42.5 49.5t41 59t37 61t36 67t32.5 65t33 67.5q2 4 4.5 4.5t4 -1t1.5 -3.5v-506q0 -11 -10 -4l-119 92q-7 5 -12 0q-129 -129 -325 -129q-137 0 -248.5 37.5t-190.5 107.5t-133 162.5t-86 210.5q0 8 -8 8h-115q-6 0 -6 7z" />
<glyph unicode="&#x2122;" horiz-adv-x="2082" d="M47 1141l37 266q0 2 2 2q45 -16 117 -16h469q71 0 116 16q3 0 3 -2l36 -266q0 -3 -1.5 -4t-2.5 2l-112 170q-10 13 -15 19t-19.5 14t-31.5 8h-61q-33 0 -33 -27v-602q0 -8 2 -10l61 -80q4 -4 0 -4h-356q-4 0 0 4l61 80q3 3 3 10v602q0 27 -33 27h-60q-36 0 -67 -41 l-111 -170l-2 -3q-2 1 -2 5zM852 627h178q6 0 2 4l-51 80q-4 4 -4 10v514l2 2l188 -487q39 -101 29 -121q0 -2 4 -2h213q4 0 4 2l238 622v-530q0 -8 -2 -10l-62 -80q-4 -4 2 -4h355q4 0 0 4l-60 80q-4 2 -4 10v569q0 34 8 45l41 54q2 4 0 4h-303q-4 0 -4 -4q0 -31 -24 -93 l-203 -542q-2 -4 -2 0q-2 15 -13 43l-188 485q-4 10 -11 29t-11 30.5t-8 25t-5 22.5q0 4 -2 4h-301q-2 0 -2 -2t2 -2l55 -72l2 -8v-588q0 -8 -2 -10l-61 -80q-4 -4 0 -4z" />
<glyph unicode="&#x25fc;" horiz-adv-x="1013" d="M0 0v1014h1014v-1014h-1014z" />
</font>
</defs>
</svg>
